[bittorrent] Jamie Payette Solo Acoustic Cantab Lounge Cambridge, Massachusetts 7/26/2018 (Schoeps CCM4V'S FOB)

Automated Mailer noreply-bt.e at etree.org
Sat Aug 11 20:50:24 UTC 2018


Band:           Other
Torrent Name:   Jamie Payette Solo Acoustic Cantab Lounge Cambridge, Massachusetts 7/26/2018  (Schoeps CCM4V'S FOB)
Uploaded by:    zmanatl
DB Link:        
Details:        http://bt.etree.org/details.php?id=600822

Contact the seeder at http://db.etree.org/zmanatl

If the link to this show does not work, it was probably removed for
being non-trade-friendly.

Description / text file:
-------------------------
Jamie Payette Solo Acoustic
Cantab Lounge
Cambridge, Massachusetts
7/26/2018 

Source: Schoeps CCM4V's>Lunatec V2>Sound Devices 722 (24/44)
FOB/DFC/KFC/ZFC/AARP 6' From Stage, 6' High
DSP: Sound Devices 722>Sound Forge 10.0>CD Wave>flac(16)
ID3 Tagged In Foobar 2000
Recorded By: Z-Man
Seeded By: Z-Man 

Disc I 

01 Greeting
02 Over You
03 Look Me Away
04 ?
05 Slow Me Down 
06 Hold On To What You Got
07 ?
08 Banter
09 That's All Glory
10 You Know I'm Coming On

jamie2018-07-26d01t01.flac:8c5f4c9e4060c312661bfecbbb873c37
jamie2018-07-26d01t02.flac:213700a11f128b4aa5a7fce2e27f1f30
jamie2018-07-26d01t03.flac:69c0918f6b87e7035a83b988de6e49b2
jamie2018-07-26d01t04.flac:892731212362e00887618c8c034a3148
jamie2018-07-26d01t05.flac:bfe771bfaae0d3465cdafe6f26b24195
jamie2018-07-26d01t06.flac:49556974224925f7db90f9e9293943d1
jamie2018-07-26d01t07.flac:44a6c3a7fdfebfd639f8c931d6e658b3
jamie2018-07-26d01t08.flac:1bcae731eae69cb8e2ab8b0b34b3ca81
jamie2018-07-26d01t09.flac:a3be53462c1f9afb3eeabf34d0989c09
jamie2018-07-26d01t10.flac:bc855eeebf19b5540409516f07f24fdf

 length     expanded size    cdr  WAVE problems  fmt   ratio  filename
     0:45.57        8072108 B   ---   --   ---xx   flac  0.3317  jamie2018-07-26d01t01.flac
     4:31.07       47820908 B   ---   --   ---xx   flac  0.3394  jamie2018-07-26d01t02.flac
     2:03.61       21840716 B   ---   --   ---xx   flac  0.4027  jamie2018-07-26d01t03.flac
     4:55.50       52155644 B   ---   --   ---xx   flac  0.3161  jamie2018-07-26d01t04.flac
     4:08.37       43834268 B   ---   --   ---xx   flac  0.3768  jamie2018-07-26d01t05.flac
     4:07.46       43679036 B   ---   --   ---xx   flac  0.3523  jamie2018-07-26d01t06.flac
     4:02.08       42707660 B   ---   --   ---xx   flac  0.3902  jamie2018-07-26d01t07.flac
     1:30.52       15998348 B   ---   --   ---xx   flac  0.3242  jamie2018-07-26d01t08.flac
     3:39.13       38662220 B   ---   --   ---xx   flac  0.3684  jamie2018-07-26d01t09.flac
     3:56.59       41769212 B   ---   --   ---xx   flac  0.3870  jamie2018-07-26d01t10.flac
    33:41.15      356540120 B                            0.3600  (10 files)




More information about the bittorrent mailing list