[bittorrent] gd86-12-17.139919.sbd-UltraMatrix.cm.miller.t-flac16

Automated Mailer noreply-bt.e at etree.org
Sat Aug 11 11:27:21 UTC 2018


Band:           Grateful Dead
Torrent Name:   gd86-12-17.139919.sbd-UltraMatrix.cm.miller.t-flac16
Uploaded by:    germain
DB Link:        
Details:        http://bt.etree.org/details.php?id=600804

Contact the seeder at http://db.etree.org/germain

If the link to this show does not work, it was probably removed for
being non-trade-friendly.

Description / text file:
-------------------------
This is a tagged version of shnid: 139919

Grateful Dead - December 17, 1986
Oakland Coliseum Arena - Oakland, CA

Recording Info:
Ultra Matrix SBD > Cassette Master (Sony TC-D5M/TDK MA-R90/Dolby B)

Transfer Info:
Cassette Master (Nakamichi CR-7A/Dolby B) > Tascam DA-3000 (DSF 1-bit/5.8 MHz) >
KORG AudioGate 4 > Adobe Audition CC 2015 > Samplitude Pro X3 Suite > FLAC/24
(1 Disc FLAC)

All Transfers and Mastering By Charlie Miller
charliemiller87 at earthlink.net
April 19, 2017

Notes:
-- Drums with Babatunde Olatunji
-- Two sets of masters were used to make this show complete
-- This fileset is 16 bits

Set 1:
01 - Tuning
02 - Alabama Getaway >
03 - Promised Land
04 - West L.A. Fadeaway
05 - Tons Of Steel >
06 - Little Red Rooster
07 - Tennessee Jed
08 - Desolation Row
09 - When Push Comes To Shove >
10 - The Music Never Stopped

Set 2:
11 - Tuning
12 - Saint Of Circumstance >
13 - Cumberland Blues >
14 - Samson And Delilah
15 - Ship Of Fools
16 - Man Smart (Woman Smarter) >
17 - He's Gone >
18 - Drums >
19 - Space >
20 - The Other One >
21 - Black Peter >
22 - Throwing Stones >
23 - Not Fade Away

Encore:
24 - Encore Break
25 - Not Fade Away
26 - Brokedown Palace

Tagging notes:
Show information is embedded within the header of each flac file. 
It will display on any player capable of directly playing flac files. 
If converted to wav during processing, all tags will be stripped, 
however audio data will remain unaffected. 
If you must transcode to a lossy format, do so directly Flac > Lossy.
Use ffp to validate audio integrity.
Md5 values will change if tagging is altered.
A Mills 11/30/17

SHNTOOL OUTPUT:
    length     expanded size    cdr  WAVE problems  fmt   ratio  filename
     1:03.43       11214380 B   ---   --   ---xx   flac  0.5853  01 Tuning.flac
     4:39.46       49323836 B   ---   --   ---xx   flac  0.6732  02 Alabama Getaway.flac
     5:18.18       56137580 B   ---   --   ---xx   flac  0.6526  03 Promised Land.flac
     9:35.20      101477084 B   ---   --   ---xx   flac  0.6300  04 West LA Fadeaway.flac
     5:00.03       52927100 B   ---   --   ---xx   flac  0.6575  05 Tons Of Steel.flac
     9:51.52      104374748 B   ---   --   ---xx   flac  0.6381  06 Little Red Rooster.flac
     9:16.02       98083148 B   ---   --   ---xx   flac  0.6525  07 Tennessee Jed.flac
    11:46.11      124564316 B   ---   --   ---xx   flac  0.6584  08 Desolation Row.flac
     4:26.63       47070620 B   ---   --   ---xx   flac  0.6768  09 When Push Comes To Shove.flac
     6:22.38       67474220 B   ---   --   ---xx   flac  0.6695  10 The Music Never Stopped.flac
     2:51.20       30211484 B   ---   --   ---xx   flac  0.5602  11 Tuning.flac
     6:35.27       69741548 B   ---   --   ---xx   flac  0.6741  12 Saint Of Circumstance.flac
     4:25.69       46908332 B   ---   --   ---xx   flac  0.6808  13 Cumberland Blues.flac
     6:56.29       73450652 B   ---   --   ---xx   flac  0.6833  14 Samson And Delilah.flac
     9:28.67      100352828 B   ---   --   ---xx   flac  0.6318  15 Ship Of Fools.flac
     6:53.05       72865004 B   ---   --   ---xx   flac  0.6792  16 Man Smart (Woman Smarter).flac
    12:37.57      133668908 B   ---   --   ---xx   flac  0.6439  17 He's Gone.flac
    10:41.66      113227676 B   ---   --   ---xx   flac  0.6490  18 Drums.flac
     9:31.12      100752668 B   ---   --   ---xx   flac  0.5934  19 Space.flac
     5:50.65       61892924 B   ---   --   ---xx   flac  0.6478  20 The Other One.flac
     9:18.21       98480636 B   ---   --   ---xx   flac  0.6434  21 Black Peter.flac
     8:37.62       91344668 B   ---   --   ---xx   flac  0.6607  22 Throwing Stones.flac
     7:58.17       84359228 B   ---   --   ---xx   flac  0.6689  23 Not Fade Away.flac
     2:49.04       29821052 B   ---   --   ---xx   flac  0.6561  24 Encore Break.flac
     1:29.23       15753740 B   ---   --   ---xx   flac  0.6699  25 Not Fade Away.flac
     6:26.72       68259788 B   ---   --   ---xx   flac  0.6606  26 Brokedown Palace.flac
   179:52.12     1903738168 B                            0.6506  (26 files)




More information about the bittorrent mailing list