[bittorrent] gd86-12-17.139917.sbd.cm.miller.t-flac16

Automated Mailer noreply-bt.e at etree.org
Sat Aug 11 11:24:54 UTC 2018


Band:           Grateful Dead
Torrent Name:   gd86-12-17.139917.sbd.cm.miller.t-flac16
Uploaded by:    germain
DB Link:        
Details:        http://bt.etree.org/details.php?id=600803

Contact the seeder at http://db.etree.org/germain

If the link to this show does not work, it was probably removed for
being non-trade-friendly.

Description / text file:
-------------------------
This is a tagged version of shnid: 139917

Grateful Dead - December 17, 1986
Oakland Coliseum Arena - Oakland, CA

Recording Info:
SBD > Cassette Master (Tascam Deck/TDK SA-X90)

Transfer Info:
Cassette Master (Nakamichi CR-7A) > Tascam DA-3000 (DSF 1-bit/5.8 MHz) >
KORG AudioGate 4 > Adobe Audition CC 2015 > Samplitude Pro X3 Suite > FLAC/24
(1 Disc FLAC)

All Transfers and Mastering By Charlie Miller
charliemiller87 at earthlink.net
April 19, 2017

Notes:
-- Drums with Babatunde Olatunji
-- Two sets of masters were used to make this show complete
-- This fileset is 16 bit

Set 1:
01 - Tuning
02 - Alabama Getaway >
03 - Promised Land
04 - West L.A. Fadeaway
05 - Tons Of Steel >
06 - Little Red Rooster
07 - Tennessee Jed
08 - Desolation Row
09 - When Push Comes To Shove >
10 - The Music Never Stopped

Set 2:
11 - Tuning
12 - Saint Of Circumstance >
13 - Cumberland Blues >
14 - Samson And Delilah
15 - Ship Of Fools
16 - Man Smart (Woman Smarter) >
17 - He's Gone >
18 - Drums >
19 - Space >
20 - The Other One >
21 - Black Peter >
22 - Throwing Stones >
23 - Not Fade Away

Encore:
24 - Encore Break
25 - Not Fade Away
26 - Brokedown Palace

Tagging notes:
Show information is embedded within the header of each flac file. 
It will display on any player capable of directly playing flac files. 
If converted to wav during processing, all tags will be stripped, 
however audio data will remain unaffected. 
If you must transcode to a lossy format, do so directly Flac > Lossy.
Use ffp to validate audio integrity.
Md5 values will change if tagging is altered.
A Mills 11/30/17

SHNTOOL OUTPUT:
    length     expanded size    cdr  WAVE problems  fmt   ratio  filename
     1:02.48       11049740 B   ---   --   ---xx   flac  0.5593  01 Tuning.flac
     4:40.70       49556684 B   ---   --   ---xx   flac  0.6897  02 Alabama Getaway.flac
     5:13.56       55344956 B   ---   --   ---xx   flac  0.6673  03 Promised Land.flac
     9:43.21      102890636 B   ---   --   ---xx   flac  0.6487  04 West LA Fadeaway.flac
     5:01.02       53101148 B   ---   --   ---xx   flac  0.6837  05 Tons Of Steel.flac
     9:53.24      104661692 B   ---   --   ---xx   flac  0.6501  06 Little Red Rooster.flac
     9:32.31      100973756 B   ---   --   ---xx   flac  0.6535  07 Tennessee Jed.flac
    11:47.22      124766588 B   ---   --   ---xx   flac  0.6671  08 Desolation Row.flac
     4:27.23       47152940 B   ---   --   ---xx   flac  0.6957  09 When Push Comes To Shove.flac
     6:18.26       66740396 B   ---   --   ---xx   flac  0.6840  10 The Music Never Stopped.flac
     2:59.56       31707356 B   ---   --   ---xx   flac  0.5630  11 Tuning.flac
     6:35.63       69826220 B   ---   --   ---xx   flac  0.6817  12 Saint Of Circumstance.flac
     4:25.61       46889516 B   ---   --   ---xx   flac  0.6760  13 Cumberland Blues.flac
     6:56.52       73504748 B   ---   --   ---xx   flac  0.6785  14 Samson And Delilah.flac
     9:29.10      100395164 B   ---   --   ---xx   flac  0.6303  15 Ship Of Fools.flac
     6:52.37       72763868 B   ---   --   ---xx   flac  0.6735  16 Man Smart (Woman Smarter).flac
    12:47.41      135395276 B   ---   --   ---xx   flac  0.6380  17 He's Gone.flac
    10:40.00      112896044 B   ---   --   ---xx   flac  0.6373  18 Drums.flac
     9:29.21      100421036 B   ---   --   ---xx   flac  0.5751  19 Space.flac
     5:49.63       61711820 B   ---   --   ---xx   flac  0.6422  20 The Other One.flac
     9:16.53       98203100 B   ---   --   ---xx   flac  0.6383  21 Black Peter.flac
     8:36.50       91140044 B   ---   --   ---xx   flac  0.6644  22 Throwing Stones.flac
     7:58.45       84425084 B   ---   --   ---xx   flac  0.6614  23 Not Fade Away.flac
     2:46.36       29367116 B   ---   --   ---xx   flac  0.5922  24 Encore Break.flac
     1:31.42       16151228 B   ---   --   ---xx   flac  0.6364  25 Not Fade Away.flac
     6:12.70       65785484 B   ---   --   ---xx   flac  0.6659  26 Brokedown Palace.flac
   180:09.48     1906821640 B                            0.6512  (26 files)



More information about the bittorrent mailing list