[bittorrent] The Bitteroots Covington Summer Concert Series On The Square Covington, Georgia 8/10/2018 (Schoeps CCM4V's FOB)

Automated Mailer noreply-bt.e at etree.org
Sat Aug 11 06:21:39 UTC 2018


Band:           Other
Torrent Name:   The Bitteroots Covington Summer Concert Series On The Square Covington, Georgia 8/10/2018 (Schoeps CCM4V's FOB)
Uploaded by:    zmanatl
DB Link:        
Details:        http://bt.etree.org/details.php?id=600797

Contact the seeder at http://db.etree.org/zmanatl

If the link to this show does not work, it was probably removed for
being non-trade-friendly.

Description / text file:
-------------------------
The Bitteroots
Covington Summer Concert Series
On The Square
Covington, Georgia
8/10/2018 

Source: Schoeps CCM4V's>Lunatec V2>Sound Devices 722 (24/44)
FOB/DFC/KFC/ZFC/AARP 25' From Stage, 6 1/2' High
DSP: Sound Devices 722>Sound Forge 10.0>CD Wave>flac(16)
ID3 Tagged In Foobar 2000
Recorded By: Z-Man
Seeded By: Z-Man 

Disc I 

01 Introduction By Katie Bond
02 Let's Go
03 Don't Wanna Fight
04 October
05 Memo
06 Hard To Handle
07 Desperate >
08 Tru Me Again >
09 Other Door
10 New Drug
11 No Demands
12 Midnight Rider
13 French Fries
14 Billie Jean
15 Clearly

Disc II  

01 Cissy Strut
02 Patsy Cline Breather For Laura
03 Use Me
04 Band Introductions
05 Souvenirs
06 Upside Down
07 ?          
08 Whippin' Post
09 Sinnin' >
10 Superstition >
11 Sinnin'
12 Ramble On >
13 Cocaine 
14 Born To Run 

Bill Taylor - Bass And Vocals
Laura Dees - Vocals
Mike Davis - Drums
Derron Nuhfer - Saxophone
PJ - Guitar

thebitter2018-08-10d01t01.flac:839f18c9d39589a1abca58c48bc71dd1
thebitter2018-08-10d01t02.flac:d2766deac6ef945a541f61a90ead5360
thebitter2018-08-10d01t03.flac:59df434a87f416bde242d82f59790693
thebitter2018-08-10d01t04.flac:fa7b0b1e12afdfb05d48271a13f03a88
thebitter2018-08-10d01t05.flac:f2e37804fa3bb890f8cca05243890b2a
thebitter2018-08-10d01t06.flac:fa7f8d5818c8802eb669fd05ae99fe37
thebitter2018-08-10d01t07.flac:102cd3a126347a8ad4e4cea2909d79bf
thebitter2018-08-10d01t08.flac:9483f6b77ebe116fc4dc30753c657d38
thebitter2018-08-10d01t09.flac:17287d8d2756ea8c3b8e49bc114b3096
thebitter2018-08-10d01t10.flac:3ff1e07b1f9c94a3f1280980dd17d001
thebitter2018-08-10d01t11.flac:f95a71e897c9131e124e4ff4e31228bc
thebitter2018-08-10d01t12.flac:f0d18a56759bfc23a99435a2fefea9e6
thebitter2018-08-10d01t13.flac:e9490816e1468190bb65ce04f63a519c
thebitter2018-08-10d01t14.flac:1874f5f47d762b8e4cfc99fec80617a4
thebitter2018-08-10d01t15.flac:3b3a8c5db5c7a8221f6afdb63991b5df
thebitter2018-08-10d02t01.flac:a0511c09d1fc23b26046adae1d1fd756
thebitter2018-08-10d02t02.flac:2effa25f4ddb5b7794c076c3f520c219
thebitter2018-08-10d02t03.flac:11233b86f341b2eaea0a416cc6db1f10
thebitter2018-08-10d02t04.flac:390fb75ed876f92caa67dd7287f0fb43
thebitter2018-08-10d02t05.flac:f64d86016897e7049a5c6e7ad27a4d6c
thebitter2018-08-10d02t06.flac:726e1f02474425fe4eee41924dd9f4d2
thebitter2018-08-10d02t07.flac:c5d2fc8fbc1d8d3c885027f2783322dd
thebitter2018-08-10d02t08.flac:57adc9413d3ba33f661e22867c9b734e
thebitter2018-08-10d02t09.flac:fa8acf7c0bbf6513794736a464ec63c6
thebitter2018-08-10d02t10.flac:ae37f361e734cd9764eb040805d80314
thebitter2018-08-10d02t11.flac:59a9adc0ef9086c3cc0921fd24fabde1
thebitter2018-08-10d02t12.flac:06d0a104796e1df97d84692a31600d75
thebitter2018-08-10d02t13.flac:922ae5c3530a5cd6f48f0ca843887004
thebitter2018-08-10d02t14.flac:c5cabb628847771a717ed9e6d4cd5426

length     expanded size    cdr  WAVE problems  fmt   ratio  filename
     1:24.30       14888204 B   ---   --   ---xx   flac  0.3849  thebitter2018-08-10d01t01.flac
     3:42.17       39200828 B   ---   --   ---xx   flac  0.5662  thebitter2018-08-10d01t02.flac
     3:59.38       42249020 B   ---   --   ---xx   flac  0.4905  thebitter2018-08-10d01t03.flac
     3:54.03       41284700 B   ---   --   ---xx   flac  0.5529  thebitter2018-08-10d01t04.flac
     4:15.48       45094940 B   ---   --   ---xx   flac  0.5122  thebitter2018-08-10d01t05.flac
     3:27.53       36639500 B   ---   --   ---xx   flac  0.5260  thebitter2018-08-10d01t06.flac
     3:52.39       41016572 B   ---   --   ---xx   flac  0.5704  thebitter2018-08-10d01t07.flac
     5:12.55       55166204 B   ---   --   ---xx   flac  0.5626  thebitter2018-08-10d01t08.flac
     4:14.34       44885612 B   ---   --   ---xx   flac  0.5100  thebitter2018-08-10d01t09.flac
     4:13.06       44643356 B   ---   --   ---xx   flac  0.5281  thebitter2018-08-10d01t10.flac
     4:14.47       44916188 B   ---   --   ---xx   flac  0.5586  thebitter2018-08-10d01t11.flac
     3:15.26       34459196 B   ---   --   ---xx   flac  0.5119  thebitter2018-08-10d01t12.flac
     4:04.04       43051052 B   ---   --   ---xx   flac  0.5042  thebitter2018-08-10d01t13.flac
     5:39.11       59825516 B   ---   --   ---xx   flac  0.5279  thebitter2018-08-10d01t14.flac
     2:54.65       30846524 B   ---   --   ---xx   flac  0.5110  thebitter2018-08-10d01t15.flac
     4:16.59       45297212 B   ---   --   ---xx   flac  0.5258  thebitter2018-08-10d02t01.flac
     1:03.73       11284940 B   ---   --   ---xx   flac  0.2964  thebitter2018-08-10d02t02.flac
     7:42.00       81496844 B   ---   --   ---xx   flac  0.5495  thebitter2018-08-10d02t03.flac
     0:33.02        5825948 B   ---   --   ---xx   flac  0.3328  thebitter2018-08-10d02t04.flac
     4:44.23       50151740 B   ---   --   ---xx   flac  0.5181  thebitter2018-08-10d02t05.flac
     5:21.49       56739692 B   ---   --   ---xx   flac  0.5092  thebitter2018-08-10d02t06.flac
     4:08.08       43766060 B   ---   --   ---xx   flac  0.4724  thebitter2018-08-10d02t07.flac
     7:18.20       77310284 B   ---   --   ---xx   flac  0.5344  thebitter2018-08-10d02t08.flac
     2:09.44       22859132 B   ---   --   ---xx   flac  0.5497  thebitter2018-08-10d02t09.flac
     1:39.47       17574188 B   ---   --   ---xx   flac  0.5763  thebitter2018-08-10d02t10.flac
     3:50.39       40663772 B   ---   --   ---xx   flac  0.5400  thebitter2018-08-10d02t11.flac
     3:58.18       42025580 B   ---   --   ---xx   flac  0.5215  thebitter2018-08-10d02t12.flac
     4:54.01       51863996 B   ---   --   ---xx   flac  0.5307  thebitter2018-08-10d02t13.flac
     5:34.10       58941164 B   ---   --   ---xx   flac  0.5554  thebitter2018-08-10d02t14.flac
   115:38.44     1223967964 B                            0.5262  (29 files)





More information about the bittorrent mailing list