[bittorrent] Melody Trucks Band Rockwood Music Hall Hall 3 New York City, New York 8/5/2018 (Schoeps CCM4V'S FOB)

Automated Mailer noreply-bt.e at etree.org
Sat Aug 11 02:39:30 UTC 2018


Band:           Other
Torrent Name:   Melody Trucks Band Rockwood Music Hall Hall 3 New York City, New York 8/5/2018  (Schoeps CCM4V'S FOB)
Uploaded by:    zmanatl
DB Link:        
Details:        http://bt.etree.org/details.php?id=600794

Contact the seeder at http://db.etree.org/zmanatl

If the link to this show does not work, it was probably removed for
being non-trade-friendly.

Description / text file:
-------------------------
Melody Trucks Band
Rockwood Music Hall
Hall 3
New York City, New York
8/5/2018 

Source: Schoeps CCM4V's>Lunatec V2>Sound Devices 722 (24/44)
BOB/DFC/KFC/ZFC/AARP Clamped To The Balcony Rail
DSP: Sound Devices 722>Sound Forge 10.0>CD Wave>flac(16)
ID3 Tagged In Foobar 2000
Recorded By: Z-Man
Seeded By: Z-Man 

Disc I 

01 Greeting
02 Little Martha >
03 Can You Feel Me Now
04 Pattern
05 Southbound
06 Personal Thing
07 A Million Miles From Yesterday
08 Live Yo Life
09 Bass And Drums >
10 Jellyfish
11 Harmonica And Drums Jam >
12 Ain't Nothin' Wrong
13 Fire Inside >
14 Les Brers In A Minor Jam
15 Yield Not To Temptation

melody2018-08-05d01t01.flac:1a7733b03d7ec9345513fa1ed136a892
melody2018-08-05d01t02.flac:c552662e6d7f1384a13eed03e43636c3
melody2018-08-05d01t03.flac:3b4fd9508e8c88461d32f5a0efefa2d3
melody2018-08-05d01t04.flac:c9de3f97514f2d9a937dcdcdfda78757
melody2018-08-05d01t05.flac:391509dbdbb720fff426235ee7754325
melody2018-08-05d01t06.flac:53da019e3615eac2ff92da8ea2cb3c9e
melody2018-08-05d01t07.flac:95cac800f8286b2d3ff7e2bd4a8197bc
melody2018-08-05d01t08.flac:97f2a45379340fb73919783a685dd1b1
melody2018-08-05d01t09.flac:e75a7116cb9288d16bfa58cfa310994b
melody2018-08-05d01t10.flac:a8b4b76acddc06df9f9834358b8fc4b6
melody2018-08-05d01t11.flac:d15496055f20ef021f36a244cc404f9e
melody2018-08-05d01t12.flac:9c8aa0690d59c504f476a1f07d90749f
melody2018-08-05d01t13.flac:0dd4c6b8c39bed3bca98bc9c50f6519c
melody2018-08-05d01t14.flac:4c9db43afe21c482e8b3b40a957520f2
melody2018-08-05d01t15.flac:f062677c1810b5fde1ecfa0fd9a6f2e0

length     expanded size    cdr  WAVE problems  fmt   ratio  filename
     1:00.14       10616972 B   ---   --   ---xx   flac  0.2511  melody2018-08-05d01t01.flac
     0:46.72        8283788 B   ---   --   ---xx   flac  0.2729  melody2018-08-05d01t02.flac
     4:35.61       48653516 B   ---   --   ---xx   flac  0.4984  melody2018-08-05d01t03.flac
     6:03.21       64082636 B   ---   --   ---xx   flac  0.5279  melody2018-08-05d01t04.flac
     4:39.50       49333244 B   ---   --   ---xx   flac  0.5219  melody2018-08-05d01t05.flac
     4:52.11       51534716 B   ---   --   ---xx   flac  0.5231  melody2018-08-05d01t06.flac
     5:23.46       57085436 B   ---   --   ---xx   flac  0.4638  melody2018-08-05d01t07.flac
     4:39.09       49236812 B   ---   --   ---xx   flac  0.5175  melody2018-08-05d01t08.flac
     1:42.46       18101036 B   ---   --   ---xx   flac  0.5288  melody2018-08-05d01t09.flac
     3:54.52       41399948 B   ---   --   ---xx   flac  0.5613  melody2018-08-05d01t10.flac
     2:53.16       30554876 B   ---   --   ---xx   flac  0.5500  melody2018-08-05d01t11.flac
     5:18.60       56236364 B   ---   --   ---xx   flac  0.5322  melody2018-08-05d01t12.flac
     4:03.63       43013420 B   ---   --   ---xx   flac  0.4866  melody2018-08-05d01t13.flac
     1:20.50       14229644 B   ---   --   ---xx   flac  0.4346  melody2018-08-05d01t14.flac
     7:16.15       76945724 B   ---   --   ---xx   flac  0.5432  melody2018-08-05d01t15.flac
    58:30.61      619308132 B                            0.5104  (15 files)










More information about the bittorrent mailing list