[bittorrent] Dead Zep The Wonder Bar Asbury Park, New Jersey 8/1/2018 (Schoeps CCM4V'S FOB)

Automated Mailer noreply-bt.e at etree.org
Thu Aug 9 03:32:28 UTC 2018


Band:           Other
Torrent Name:   Dead Zep The Wonder Bar Asbury Park, New Jersey 8/1/2018   (Schoeps CCM4V'S FOB)
Uploaded by:    zmanatl
DB Link:        
Details:        http://bt.etree.org/details.php?id=600759

Contact the seeder at http://db.etree.org/zmanatl

If the link to this show does not work, it was probably removed for
being non-trade-friendly.

Description / text file:
-------------------------
Dead Zep
The Wonder Bar
Asbury Park, New Jersey
8/1/2018 

Source: Schoeps CCM4V's>Lunatec V2>Sound Devices 722 (24/44)
FOB/DFC/KFC/ZFC/AARP 17' From Stage, 7' High
DSP: Sound Devices 722>Sound Forge 10.0>CD Wave>flac(16)
ID3 Tagged In Foobar 2000
Recorded By: Z-Man
Seeded By: Z-Man 

Disc I 

01 Jam >
02 The Other One >
03 How Many More Times >
04 The Other One >
05 How Many More Times
06 Ramble On >
07 St. Stephen >
08 Whole Lotta Love >
09 St. Stephen
Encore:
10 Band Introductions
11 Help On The Way >
12 Slipknot!

deadzep2018-08-01d01t01.flac:8a63a3003f2c5cde7a9765337cdd170b
deadzep2018-08-01d01t02.flac:48ef823482915c77f6c46c493fb9e879
deadzep2018-08-01d01t03.flac:9903ee7e7f49faf8166b6914e0ac76d1
deadzep2018-08-01d01t04.flac:f86e9a1e048227b79adf985184d4c5e4
deadzep2018-08-01d01t05.flac:0c94783c0dc89665a68bbdb379c98b84
deadzep2018-08-01d01t06.flac:47f2ae1111e2549cee54da804a647669
deadzep2018-08-01d01t07.flac:6c101e98fca7c930998b0d054a64e5b8
deadzep2018-08-01d01t08.flac:ca0920881bd00ee3e93b1837a65cf625
deadzep2018-08-01d01t09.flac:df86b5dc2008c0cfcdfa565210538273
deadzep2018-08-01d01t10.flac:ce85c3ca4b6294cc371f44800668866c
deadzep2018-08-01d01t11.flac:9a647e627ad2f38e0892aa034055146b
deadzep2018-08-01d01t12.flac:993cd22b6931b0e1f8ebfd82e7329e43

length     expanded size    cdr  WAVE problems  fmt   ratio  filename
     4:12.60       44593964 B   ---   --   ---xx   flac  0.4081  deadzep2018-08-01d01t01.flac
     3:10.37       33603068 B   ---   --   ---xx   flac  0.4059  deadzep2018-08-01d01t02.flac
     4:26.28       46988300 B   ---   --   ---xx   flac  0.4587  deadzep2018-08-01d01t03.flac
     1:08.07       12011708 B   ---   --   ---xx   flac  0.4069  deadzep2018-08-01d01t04.flac
     3:57.01       41809196 B   ---   --   ---xx   flac  0.4166  deadzep2018-08-01d01t05.flac
     7:12.41       76301276 B   ---   --   ---xx   flac  0.4254  deadzep2018-08-01d01t06.flac
     6:00.57       63638108 B   ---   --   ---xx   flac  0.4271  deadzep2018-08-01d01t07.flac
     4:40.37       49479068 B   ---   --   ---xx   flac  0.4869  deadzep2018-08-01d01t08.flac
     1:17.51       13702796 B   ---   --   ---xx   flac  0.4693  deadzep2018-08-01d01t09.flac
     2:14.11       23663516 B   ---   --   ---xx   flac  0.3269  deadzep2018-08-01d01t10.flac
     6:12.36       65705516 B   ---   --   ---xx   flac  0.4420  deadzep2018-08-01d01t11.flac
     5:57.23       63028940 B   ---   --   ---xx   flac  0.4594  deadzep2018-08-01d01t12.flac
    50:30.14      534525456 B                            0.4333  (12 files)




More information about the bittorrent mailing list