[bittorrent] gd86-12-15.nak300.godley.andrewF.t-flac16

Automated Mailer noreply-bt.e at etree.org
Tue Aug 7 10:50:29 UTC 2018


Band:           Grateful Dead
Torrent Name:   gd86-12-15.nak300.godley.andrewF.t-flac16
Uploaded by:    germain
DB Link:        
Details:        http://bt.etree.org/details.php?id=600718

Contact the seeder at http://db.etree.org/germain

If the link to this show does not work, it was probably removed for
being non-trade-friendly.

Description / text file:
-------------------------
This is a tagged version of shnid: 132368

Grateful Dead
Coliseum Arena
Oakland CA
12-15-1986

16bit/44.1kHz file-set


101-s1t01 crowd
102-s1t02 Touch of Grey
103-s1t03 C.C. Rider >
104-s1t04 When Push Comes to Shove
105-s1t05 Beat it on Down the Line > 
106-s1t06 Greatest Story Ever Told
107-s1t07 Loser
108-s1t08 Cassidy >
109-s1t09 Althea
110-s1t10 Brother Esau
111-s1t11 Candyman
112-s1t12 Let it Grow

201-s2t01 crowd
202-s2t02 Iko Iko >
203-s2t03 Looks Like Rain
204-s2t04 Black Muddy River
205-s2t05 Playin' in the Band >
206-s2t06 Terrapin >
207-s2t07 Drums >
208-s2t08 Space >
209-s2t09 Truckin' >
210-s2t10 Wharf Rat >
211-s2t11 Playin' Reprise
212-s2t12 Good Lovin'
213-s2t13 Encore:
 Johnny B. Goode


Recording Info (OTS AUD):
Nakamichi CM300/CP4 shotguns > Sony TC-D5M > Maxell
MX 90's, with no Dolby, recording by Ted Gidley

Transfer:
MAC > Nakamichi CR-5A > Edirol FA-66 > Wavelab 2448 >
CD-Wave (24bit output) >
R8Brain > TLH > FLAC 1644 tagged

Transferred by Andrew F. 02/2015

Note:
Next in line MAC provides patches: first five seconds of
When Push Comes to Shove, and twelve seconds near end of Drums.
---------------------------------------------------------------------
Tagging Notes:
Show information is embedded within the header of each flac file.
It will display on any player capable of directly playing flac files.
If converted to wav during processing, all tags will be stripped,
 however, the audio data will remain unaffected.
If you must transcode to a Lossy format, do directly flac>Lossy.
Use FFP to validate audio integrity.
MD5 values will change if tagging is altered.

B. Hart 08-03-18
---------------------------------------------------------------------

 length     expanded size    cdr  WAVE problems  fmt   ratio  filename

     1:04.00       11289644 B   ---   --   ---xx   flac  0.5854  gd1986-12-15s1t01.flac
     8:37.48       91311740 B   ---   --   ---xx   flac  0.5964  gd1986-12-15s1t02.flac

     7:45.30       82096604 B   ---   --   ---xx   flac  0.5923  gd1986-12-15s1t03.flac

     5:09.45       54613484 B   ---   --   ---xx   flac  0.6055  gd1986-12-15s1t04.flac

     3:04.37       32544668 B   ---   --   ---xx   flac  0.6089  gd1986-12-15s1t05.flac

     4:51.51       51452396 B   ---   --   ---xx   flac  0.5917  gd1986-12-15s1t06.flac

     8:14.03       87148700 B   ---   --   ---xx   flac  0.5851  gd1986-12-15s1t07.flac

     5:18.60       56236364 B   ---   --   ---xx   flac  0.6247  gd1986-12-15s1t08.flac

     8:39.14       91584572 B   ---   --   ---xx   flac  0.5951  gd1986-12-15s1t09.flac

     5:18.25       56154044 B   ---   --   ---xx   flac  0.5994  gd1986-12-15s1t10.flac

     6:31.48       69085340 B   ---   --   ---xx   flac  0.5943  gd1986-12-15s1t11.flac

    10:48.54      114434252 B   ---   --   ---xx   flac  0.6193  gd1986-12-15s1t12.flac

     0:44.70        7926284 B   ---   --   ---xx   flac  0.5580  gd1986-12-15s2t01.flac

     4:47.60       50767964 B   ---   --   ---xx   flac  0.6264  gd1986-12-15s2t02.flac

     8:46.59       92925212 B   ---   --   ---xx   flac  0.5930  gd1986-12-15s2t03.flac

     5:37.18       59489180 B   ---   --   ---xx   flac  0.5823  gd1986-12-15s2t04.flac

     9:18.27       98494748 B   ---   --   ---xx   flac  0.5985  gd1986-12-15s2t05.flac

    10:41.31      113145356 B   ---   --   ---xx   flac  0.5936  gd1986-12-15s2t06.flac

     9:59.42      105762428 B   ---   --   ---xx   flac  0.5639  gd1986-12-15s2t07.flac

    10:38.48      112656140 B   ---   --   ---xx   flac  0.5306  gd1986-12-15s2t08.flac

     6:22.08       67403660 B   ---   --   ---xx   flac  0.6116  gd1986-12-15s2t09.flac

     8:28.11       89637116 B   ---   --   ---xx   flac  0.5880  gd1986-12-15s2t10.flac

     4:32.50       48098444 B   ---   --   ---xx   flac  0.5845  gd1986-12-15s2t11.flac

     8:13.69       87127532 B   ---   --   ---xx   flac  0.6077  gd1986-12-15s2t12.flac

     4:19.40       45781724 B   ---   --   ---xx   flac  0.6154  gd1986-12-15s2t13.flac


   167:54.48     1777167596 B                            0.5930  (25 files)

No errors occured.







More information about the bittorrent mailing list