[bittorrent] gd86-12-15.128689.mtx.nicksmix.flac16

Automated Mailer noreply-bt.e at etree.org
Tue Aug 7 10:45:34 UTC 2018


Band:           Grateful Dead
Torrent Name:   gd86-12-15.128689.mtx.nicksmix.flac16
Uploaded by:    germain
DB Link:        
Details:        http://bt.etree.org/details.php?id=600717

Contact the seeder at http://db.etree.org/germain

If the link to this show does not work, it was probably removed for
being non-trade-friendly.

Description / text file:
-------------------------
Grateful Dead
Henry J. Kaiser Convention Center
Oakland, California
December 15, 1986

2 source matrix mix of shnid 80809(aud) and shnid 99035(sbd)
Mixed By Nick Crump
Eugene, Oregon
May 2014

Audience source has a brief cut during Drums, left unpatched. 
Also, several cuts between songs during 1st set. Gaps were left in, soundboard was not cut so as to preserve the pace of the show. There is some Dead Space.
This is the first show after Jerry's recovery from a coma.

Source 1(audience): gd1986-12-15.nakcm304.beckham.suraci.sbeok.80809.flac16
  Source: *Nakamichi CM304's>Sony D5M
  Location: OTS Floor, Stand at 9 Feet
  Transfer: Nak CR5A>Lunatec V3(analog out)>722 at 24/96
  Editing: Adobe Audition 2.0 dither and resample 16Bit>Cdwav/tracking>flac16
  Taper: *Don Beckham and Tony Suraci
  Transfer and upload by Tony Suraci
  *Thanks to Don for running my rig.
  Notes: This is the 16Bit version.

Source 2(soundboard): gd1986-12-15.sbd.walker-scotton.miller.99035.sbeok.flac16
  Recording Info: 
  SBD -> Cassette Master (Sony D5/TDK MX-XG90/Dolby B) 
  Transfer Info: 
  Cassette Master (Nakamichi DR-1/Dolby B) -> Sound Devices 744T (24bit/96k) ->
  Samplitude Professional v10.2.1 -> FLAC/16
  (3 Discs Audio / 2 Discs FLAC) 
  All Transfers and Mastering By Charlie Miller 
  charliemiller87 at earthlink.net 
  May 14, 2009
  Patch Info:
  Nakamichi 300/CP4 -> Cassette Master -> FLAC (shnid=80809) supplies:
  Drums (2:10 - 2:22)
  Notes:
  -- Set 2 is seamless
  -- Thanks to Joani Walker and Paul Scotton for the Cassettes

--Set 1--
101-d1t01 - Touch of Grey
102-d1t02 - C C Rider
103-d1t03 - When Push Comes to Shove
104-d1t04 - Beat It On Down the Line ->
105-d1t05 - Greatest Story Ever Told
106-d1t06 - Loser
107-d1t07 - Cassidy ->
108-d1t08 - Althea
119-d1t09 - My Brother Esau
110-d1t10 - Candyman ->
111-d1t11 - Let It Grow

--Set 2--
201-d2t01 - Iko Iko
202-d2t02 - Looks Like Rain
203-d2t03 - Black Muddy River
204-d2t04 - Playing in the Band ->
205-d2t05 - Terrapin Station ->
206-d2t06 - Drums ->
207-d3t01 - Space ->
208-d3t02 - Truckin' ->
209-d3t03 - Wharf Rat ->
210-d3t04 - Playing in the Band ->
211-d3t05 - Good Lovin'

--Encore--
212-d3t06 - Johnny B. Goode

Thanks to Tony Suraci, Don Beckham, Charlie Miller, Joani Walker and Paul Scotton for providing the sources used in this mix.


    length     expanded size    cdr  WAVE problems  fmt   ratio  filename
     9:10.57       97154108 B   ---   --   ---xx   flac  0.6092  gd86-12-15d1t01.flac
     7:44.59       81988412 B   ---   --   ---xx   flac  0.6340  gd86-12-15d1t02.flac
     6:18.10       66702764 B   ---   --   ---xx   flac  0.6227  gd86-12-15d1t03.flac
     3:05.24       32690492 B   ---   --   ---xx   flac  0.6636  gd86-12-15d1t04.flac
     4:53.35       51767564 B   ---   --   ---xx   flac  0.6283  gd86-12-15d1t05.flac
     8:57.67       94884428 B   ---   --   ---xx   flac  0.5928  gd86-12-15d1t06.flac
     5:19.65       56424524 B   ---   --   ---xx   flac  0.6518  gd86-12-15d1t07.flac
     8:37.39       91290572 B   ---   --   ---xx   flac  0.6105  gd86-12-15d1t08.flac
     5:18.06       56109356 B   ---   --   ---xx   flac  0.6137  gd86-12-15d1t09.flac
     6:32.40       69242924 B   ---   --   ---xx   flac  0.6131  gd86-12-15d1t10.flac
    10:53.45      115295084 B   ---   --   ---xx   flac  0.6556  gd86-12-15d1t11.flac
     5:33.47       58851788 B   ---   --   ---xx   flac  0.6482  gd86-12-15d2t01.flac
     8:45.08       92628860 B   ---   --   ---xx   flac  0.6143  gd86-12-15d2t02.flac
     5:39.57       59933708 B   ---   --   ---xx   flac  0.6050  gd86-12-15d2t03.flac
     9:16.54       98205452 B   ---   --   ---xx   flac  0.6223  gd86-12-15d2t04.flac
    10:40.19      112940732 B   ---   --   ---xx   flac  0.6154  gd86-12-15d2t05.flac
    10:02.53      106317500 B   ---   --   ---xx   flac  0.5582  gd86-12-15d2t06.flac
    10:34.26      111898796 B   ---   --   ---xx   flac  0.5208  gd86-12-15d3t01.flac
     6:20.55       67161404 B   ---   --   ---xx   flac  0.6507  gd86-Grateful Dead
Henry J. Kaiser Convention Center
Oakland, California
December 15, 1986

2 source matrix mix of shnid 80809(aud) and shnid 99035(sbd)
Mixed By Nick Crump
Eugene, Oregon
May 2014

Audience source has a brief cut during Drums, left unpatched. 
Also, several cuts between songs during 1st set. Gaps were left in, soundboard was not cut so as to preserve the pace of the show. There is some Dead Space.
This is the first show after Jerry's recovery from a coma.

Source 1(audience): gd1986-12-15.nakcm304.beckham.suraci.sbeok.80809.flac16
  Source: *Nakamichi CM304's>Sony D5M
  Location: OTS Floor, Stand at 9 Feet
  Transfer: Nak CR5A>Lunatec V3(analog out)>722 at 24/96
  Editing: Adobe Audition 2.0 dither and resample 16Bit>Cdwav/tracking>flac16
  Taper: *Don Beckham and Tony Suraci
  Transfer and upload by Tony Suraci
  *Thanks to Don for running my rig.
  Notes: This is the 16Bit version.

Source 2(soundboard): gd1986-12-15.sbd.walker-scotton.miller.99035.sbeok.flac16
  Recording Info: 
  SBD -> Cassette Master (Sony D5/TDK MX-XG90/Dolby B) 
  Transfer Info: 
  Cassette Master (Nakamichi DR-1/Dolby B) -> Sound Devices 744T (24bit/96k) ->
  Samplitude Professional v10.2.1 -> FLAC/16
  (3 Discs Audio / 2 Discs FLAC) 
  All Transfers and Mastering By Charlie Miller 
  charliemiller87 at earthlink.net 
  May 14, 2009
  Patch Info:
  Nakamichi 300/CP4 -> Cassette Master -> FLAC (shnid=80809) supplies:
  Drums (2:10 - 2:22)
  Notes:
  -- Set 2 is seamless
  -- Thanks to Joani Walker and Paul Scotton for the Cassettes

--Set 1--
101-d1t01 - Touch of Grey
102-d1t02 - C C Rider
103-d1t03 - When Push Comes to Shove
104-d1t04 - Beat It On Down the Line ->
105-d1t05 - Greatest Story Ever Told
106-d1t06 - Loser
107-d1t07 - Cassidy ->
108-d1t08 - Althea
119-d1t09 - My Brother Esau
110-d1t10 - Candyman ->
111-d1t11 - Let It Grow

--Set 2--
201-d2t01 - Iko Iko
202-d2t02 - Looks Like Rain
203-d2t03 - Black Muddy River
204-d2t04 - Playing in the Band ->
205-d2t05 - Terrapin Station ->
206-d2t06 - Drums ->
207-d3t01 - Space ->
208-d3t02 - Truckin' ->
209-d3t03 - Wharf Rat ->
210-d3t04 - Playing in the Band ->
211-d3t05 - Good Lovin'

--Encore--
212-d3t06 - Johnny B. Goode

Thanks to Tony Suraci, Don Beckham, Charlie Miller, Joani Walker and Paul Scotton for providing the sources used in this mix.


    length     expanded size    cdr  WAVE problems  fmt   ratio  filename
     9:10.57       97154108 B   ---   --   ---xx   flac  0.6092  gd86-12-15d1t01.flac
     7:44.59       81988412 B   ---   --   ---xx   flac  0.6340  gd86-12-15d1t02.flac
     6:18.10       66702764 B   ---   --   ---xx   flac  0.6227  gd86-12-15d1t03.flac
     3:05.24       32690492 B   ---   --   ---xx   flac  0.6636  gd86-12-15d1t04.flac
     4:53.35       51767564 B   ---   --   ---xx   flac  0.6283  gd86-12-15d1t05.flac
     8:57.67       94884428 B   ---   --   ---xx   flac  0.5928  gd86-12-15d1t06.flac
     5:19.65       56424524 B   ---   --   ---xx   flac  0.6518  gd86-12-15d1t07.flac
     8:37.39       91290572 B   ---   --   ---xx   flac  0.6105  gd86-12-15d1t08.flac
     5:18.06       56109356 B   ---   --   ---xx   flac  0.6137  gd86-12-15d1t09.flac
     6:32.40       69242924 B   ---   --   ---xx   flac  0.6131  gd86-12-15d1t10.flac
    10:53.45      115295084 B   ---   --   ---xx   flac  0.6556  gd86-12-15d1t11.flac
     5:33.47       58851788 B   ---   --   ---xx   flac  0.6482  gd86-12-15d2t01.flac
     8:45.08       92628860 B   ---   --   ---xx   flac  0.6143  gd86-12-15d2t02.flac
     5:39.57       59933708 B   ---   --   ---xx   flac  0.6050  gd86-12-15d2t03.flac
     9:16.54       98205452 B   ---   --   ---xx   flac  0.6223  gd86-12-15d2t04.flac
    10:40.19      112940732 B   ---   --   ---xx   flac  0.6154  gd86-12-15d2t05.flac
    10:02.53      106317500 B   ---   --   ---xx   flac  0.5582  gd86-12-15d2t06.flac
    10:34.26      111898796 B   ---   --   ---xx   flac  0.5208  gd86-12-15d3t01.flac
     6:20.55       67161404 B   ---   --   ---xx   flac  0.6507  gd86-Grateful Dead
Henry J. Kaiser Convention Center
Oakland, California
December 15, 1986

2 source matrix mix of shnid 80809(aud) and shnid 99035(sbd)
Mixed By Nick Crump
Eugene, Oregon
May 2014

Audience source has a brief cut during Drums, left unpatched. 
Also, several cuts between songs during 1st set. Gaps were left in, soundboard was not cut so as to preserve the pace of the show. There is some Dead Space.
This is the first show after Jerry's recovery from a coma.

Source 1(audience): gd1986-12-15.nakcm304.beckham.suraci.sbeok.80809.flac16
  Source: *Nakamichi CM304's>Sony D5M
  Location: OTS Floor, Stand at 9 Feet
  Transfer: Nak CR5A>Lunatec V3(analog out)>722 at 24/96
  Editing: Adobe Audition 2.0 dither and resample 16Bit>Cdwav/tracking>flac16
  Taper: *Don Beckham and Tony Suraci
  Transfer and upload by Tony Suraci
  *Thanks to Don for running my rig.
  Notes: This is the 16Bit version.

Source 2(soundboard): gd1986-12-15.sbd.walker-scotton.miller.99035.sbeok.flac16
  Recording Info: 
  SBD -> Cassette Master (Sony D5/TDK MX-XG90/Dolby B) 
  Transfer Info: 
  Cassette Master (Nakamichi DR-1/Dolby B) -> Sound Devices 744T (24bit/96k) ->
  Samplitude Professional v10.2.1 -> FLAC/16
  (3 Discs Audio / 2 Discs FLAC) 
  All Transfers and Mastering By Charlie Miller 
  charliemiller87 at earthlink.net 
  May 14, 2009
  Patch Info:
  Nakamichi 300/CP4 -> Cassette Master -> FLAC (shnid=80809) supplies:
  Drums (2:10 - 2:22)
  Notes:
  -- Set 2 is seamless
  -- Thanks to Joani Walker and Paul Scotton for the Cassettes

--Set 1--
101-d1t01 - Touch of Grey
102-d1t02 - C C Rider
103-d1t03 - When Push Comes to Shove
104-d1t04 - Beat It On Down the Line ->
105-d1t05 - Greatest Story Ever Told
106-d1t06 - Loser
107-d1t07 - Cassidy ->
108-d1t08 - Althea
119-d1t09 - My Brother Esau
110-d1t10 - Candyman ->
111-d1t11 - Let It Grow

--Set 2--
201-d2t01 - Iko Iko
202-d2t02 - Looks Like Rain
203-d2t03 - Black Muddy River
204-d2t04 - Playing in the Band ->
205-d2t05 - Terrapin Station ->
206-d2t06 - Drums ->
207-d3t01 - Space ->
208-d3t02 - Truckin' ->
209-d3t03 - Wharf Rat ->
210-d3t04 - Playing in the Band ->
211-d3t05 - Good Lovin'

--Encore--
212-d3t06 - Johnny B. Goode

Thanks to Tony Suraci, Don Beckham, Charlie Miller, Joani Walker and Paul Scotton for providing the sources used in this mix.


    length     expanded size    cdr  WAVE problems  fmt   ratio  filename
     9:10.57       97154108 B   ---   --   ---xx   flac  0.6092  gd86-12-15d1t01.flac
     7:44.59       81988412 B   ---   --   ---xx   flac  0.6340  gd86-12-15d1t02.flac
     6:18.10       66702764 B   ---   --   ---xx   flac  0.6227  gd86-12-15d1t03.flac
     3:05.24       32690492 B   ---   --   ---xx   flac  0.6636  gd86-12-15d1t04.flac
     4:53.35       51767564 B   ---   --   ---xx   flac  0.6283  gd86-12-15d1t05.flac
     8:57.67       94884428 B   ---   --   ---xx   flac  0.5928  gd86-12-15d1t06.flac
     5:19.65       56424524 B   ---   --   ---xx   flac  0.6518  gd86-12-15d1t07.flac
     8:37.39       91290572 B   ---   --   ---xx   flac  0.6105  gd86-12-15d1t08.flac
     5:18.06       56109356 B   ---   --   ---xx   flac  0.6137  gd86-12-15d1t09.flac
     6:32.40       69242924 B   ---   --   ---xx   flac  0.6131  gd86-12-15d1t10.flac
    10:53.45      115295084 B   ---   --   ---xx   flac  0.6556  gd86-12-15d1t11.flac
     5:33.47       58851788 B   ---   --   ---xx   flac  0.6482  gd86-12-15d2t01.flac
     8:45.08       92628860 B   ---   --   ---xx   flac  0.6143  gd86-12-15d2t02.flac
     5:39.57       59933708 B   ---   --   ---xx   flac  0.6050  gd86-12-15d2t03.flac
     9:16.54       98205452 B   ---   --   ---xx   flac  0.6223  gd86-12-15d2t04.flac
    10:40.19      112940732 B   ---   --   ---xx   flac  0.6154  gd86-12-15d2t05.flac
    10:02.53      106317500 B   ---   --   ---xx   flac  0.5582  gd86-12-15d2t06.flac
    10:34.26      111898796 B   ---   --   ---xx   flac  0.5208  gd86-12-15d3t01.flac
     6:20.55       67161404 B   ---   --   ---xx   flac  0.6507  gd86-gd86-12-15d3t02.flac
     8:31.31       90213356 B   ---   --   ---xx   flac  0.6104  gd86-12-15d3t03.flac
     4:30.61       47771516 B   ---   --   ---xx   flac  0.6073  gd86-12-15d3t04.flac
     8:36.60       91163564 B   ---   --   ---xx   flac  0.6501  gd86-12-15d3t05.flac
     4:23.24       46449692 B   ---   --   ---xx   flac  0.6419  gd86-12-15d3t06.flac
   169:47.42     1797086596 B                            0.6146  (23 files)




More information about the bittorrent mailing list