[bittorrent] Midnight North Garcias's At The Capitol Theatre Port Chester New York 7/25/2018 (Schoeps CCM4V'S)

Automated Mailer noreply-bt.e at etree.org
Sat Aug 4 16:20:53 UTC 2018


Band:           Other
Torrent Name:   Midnight North Garcias's At The Capitol Theatre Port Chester New York 7/25/2018 (Schoeps CCM4V'S)
Uploaded by:    zmanatl
DB Link:        
Details:        http://bt.etree.org/details.php?id=600690

Contact the seeder at http://db.etree.org/zmanatl

If the link to this show does not work, it was probably removed for
being non-trade-friendly.

Description / text file:
-------------------------
Midnight North
Garcias's At The Capitol Theatre
Port Chester New York
7/25/2018 

Source: Schoeps CCM4V's>Lunatec V2>Sound Devices 722 (24/44)
BOB/DFC/KFC/ZFC/AARP 40' From Stage, 8' High
DSP: Sound Devices 722>Sound Forge 10.0>CD Wave>flac(16)
ID3 Tagged In Foobar 2000
Recorded By: Z-Man
Seeded By: Z-Man 

Disc I 1st Set

01 Greeting
02 Playing A Poor Hand Well
03 ?
04 The Highway Song
05 Don't Do It
06 ?
07 Every Day
08 Miss M
09 Carry On >
10 Questions

Disc II 2nd Set

01 Roamin' >
02 Cumberland Blues
03 The Storm Is Comin'
04 Keep Your Lamps Trimmed And Burnin'
05 Danko/Manuel
06 Greene County
07 ?
Encore:
08 Thanks
09 Tennessee Jed

Grahame Lesh - Guitar And Vocals
Elliott Peck - Guitar And Vocals
Connor O'Sullivan - Bass And Vocals
Alex Jordan - Keyboards And Vocals
Nathan Graham - Drums

midnight2018-07-25d01t01.flac:29f57806d4b595a14edaecd3f1b3a689
midnight2018-07-25d01t02.flac:a494914f54855cd97987095f4cb55bfc
midnight2018-07-25d01t03.flac:cf81532ce4c0effc405b2ef0c27181a4
midnight2018-07-25d01t04.flac:99d6d3e3e637d8f55be2c9ea5e84836c
midnight2018-07-25d01t05.flac:ff018b960088c5e543a840381a26f18d
midnight2018-07-25d01t06.flac:2295d8870af5050bb53f3ddba4671388
midnight2018-07-25d01t07.flac:0921335d905bd540510dfe88b38d27e4
midnight2018-07-25d01t08.flac:fdef7d31e49a228ca699e59524909835
midnight2018-07-25d01t09.flac:3bb0cd3e143e16e7bed271446ad4f7e6
midnight2018-07-25d01t10.flac:67e8ff85addba4690b42a5704f4b43fd
midnight2018-07-25d02t01.flac:0359f8f2e2530a1a01a64900b3c74725
midnight2018-07-25d02t02.flac:4dbd95adb5ed6e36e9e2390d63b7dc7f
midnight2018-07-25d02t03.flac:f158331c581b55e3d8ecfb9bf3e03f03
midnight2018-07-25d02t04.flac:21ff9b863ceacea6e3a9786078537fe8
midnight2018-07-25d02t05.flac:8daba9e936182ffa2a4a00656bc02c4d
midnight2018-07-25d02t06.flac:852e19d3ae6cd3cb514b9aed83cc654b
midnight2018-07-25d02t07.flac:c235bf6f8d9b67bb30a9beb008d0c500
midnight2018-07-25d02t08.flac:f7a115c2759cf2c2ca4446a1ebae1c86
midnight2018-07-25d02t09.flac:15ed24039ae2649315de86632dda8bf9

 length     expanded size    cdr  WAVE problems  fmt   ratio  filename
     0:32.51        5764796 B   ---   --   ---xx   flac  0.4662  midnight2018-07-25d01t01.flac
     6:05.19       64430732 B   ---   --   ---xx   flac  0.5211  midnight2018-07-25d01t02.flac
     5:40.08       59994860 B   ---   --   ---xx   flac  0.4805  midnight2018-07-25d01t03.flac
     3:52.22       40976588 B   ---   --   ---xx   flac  0.5488  midnight2018-07-25d01t04.flac
     8:21.52       88498748 B   ---   --   ---xx   flac  0.5456  midnight2018-07-25d01t05.flac
     6:15.25       66208844 B   ---   --   ---xx   flac  0.5111  midnight2018-07-25d01t06.flac
     7:23.03       78152300 B   ---   --   ---xx   flac  0.5305  midnight2018-07-25d01t07.flac
     5:49.65       61716524 B   ---   --   ---xx   flac  0.5252  midnight2018-07-25d01t08.flac
     5:43.46       60613436 B   ---   --   ---xx   flac  0.5328  midnight2018-07-25d01t09.flac
     6:33.19       69369932 B   ---   --   ---xx   flac  0.4984  midnight2018-07-25d01t10.flac
     9:15.38       97991420 B   ---   --   ---xx   flac  0.5369  midnight2018-07-25d02t01.flac
    11:23.35      120563564 B   ---   --   ---xx   flac  0.5094  midnight2018-07-25d02t02.flac
     6:47.41       71891276 B   ---   --   ---xx   flac  0.5467  midnight2018-07-25d02t03.flac
     7:25.01       78500396 B   ---   --   ---xx   flac  0.4970  midnight2018-07-25d02t04.flac
    10:23.61      110040716 B   ---   --   ---xx   flac  0.4734  midnight2018-07-25d02t05.flac
     6:54.25       73088444 B   ---   --   ---xx   flac  0.4983  midnight2018-07-25d02t06.flac
     6:23.38       67650620 B   ---   --   ---xx   flac  0.5572  midnight2018-07-25d02t07.flac
     1:27.45       15452684 B   ---   --   ---xx   flac  0.4207  midnight2018-07-25d02t08.flac
     7:34.50       80203244 B   ---   --   ---xx   flac  0.5241  midnight2018-07-25d02t09.flac
   123:52.44     1311109124 B                            0.5168  (19 files)




More information about the bittorrent mailing list