[bittorrent] Phish - 2018-08-03 - Verizon Wireless Amphitheater - Alpharetta, GA [Telefunken TK62 > M60 - flac2448]

Automated Mailer noreply-bt.e at etree.org
Sat Aug 4 14:15:33 UTC 2018


Band:           Phish
Torrent Name:   Phish - 2018-08-03 - Verizon Wireless Amphitheater - Alpharetta, GA [Telefunken TK62 > M60 - flac2448]
Uploaded by:    jmitchell
DB Link:        
Details:        http://bt.etree.org/details.php?id=600687

Contact the seeder at http://db.etree.org/jmitchell

If the link to this show does not work, it was probably removed for
being non-trade-friendly.

Description / text file:
-------------------------
Phish
2018-08-03
Verizon Wireless Amphitheatre At Encore Park
Alpharetta, GA

Source:  Telefunken TK62 > Telefunken M60 > Sound Devices MixPre-6
Transfer: SDXC > Samplitude Pro X3 > dBpoweramp Music Converter > Foobar2000 v1.3.10 (Live Show Tagger)
Location:  OTS (Section 104, Row CC, Seat 1) 6' high, DIN
Recorded by Jeff Mitchell

Set 1
s1t01 - First Tube
s1t02 - No Men In No Man's Land
s1t03 - Ghost
s1t04 - All Of These Dreams
s1t05 - Back On The Train
s1t06 - Free
s1t07 - Martian Monster
s1t08 - Tube
s1t09 - 555
s1t10 - Walls Of The Cave

Set 2
s2t01 - Tweezer >
s2t02 - Blaze On >
s2t03 - Prince Caspian >
s2t04 - Carini >
s2t05 - Simple >
s2t06 - Winterqueen
s2t07 - Harry Hood
s2t08 - Encore Break

Encore
s2t09 - More

 length     expanded size    cdr  WAVE problems  fmt   ratio  filename
     8:07.827     140494124 B   cxx   --   ---xx   flac  0.6915  ph2018-08-03s1t01.flac
    10:06.639     174711980 B   cxx   --   ---xx   flac  0.6619  ph2018-08-03s1t02.flac
    22:27.548     388093994 B   cxx   --   ---xx   flac  0.6519  ph2018-08-03s1t03.flac
     4:05.234      70627436 B   cxx   --   ---xx   flac  0.6201  ph2018-08-03s1t04.flac
     7:46.038     134218976 B   cxx   --   ---xx   flac  0.6512  ph2018-08-03s1t05.flac
     7:13.557     124864424 B   cxx   --   ---xx   flac  0.6650  ph2018-08-03s1t06.flac
     4:07.184      71188988 B   cxx   --   ---xx   flac  0.6617  ph2018-08-03s1t07.flac
     5:40.469      98055032 B   cxx   --   ---xx   flac  0.6809  ph2018-08-03s1t08.flac
     5:25.930      93867824 B   cxx   --   ---xx   flac  0.6661  ph2018-08-03s1t09.flac
    11:53.435     205469246 B   cxx   --   ---xx   flac  0.6605  ph2018-08-03s1t10.flac
    16:41.553     288447164 B   cxx   --   ---xx   flac  0.6633  ph2018-08-03s2t01.flac
    10:00.595     172971308 B   cxx   --   ---xx   flac  0.6636  ph2018-08-03s2t02.flac
     5:56.230     102594254 B   cxx   --   ---xx   flac  0.6508  ph2018-08-03s2t03.flac
    20:21.848     351892172 B   cxx   --   ---xx   flac  0.6620  ph2018-08-03s2t04.flac
     6:30.652     112507688 B   cxx   --   ---xx   flac  0.6548  ph2018-08-03s2t05.flac
     9:03.880     156637478 B   cxx   --   ---xx   flac  0.6275  ph2018-08-03s2t06.flac
    12:35.586     217608680 B   cxx   --   ---xx   flac  0.6444  ph2018-08-03s2t07.flac
     2:35.042      44652080 B   cxx   --   ---xx   flac  0.6229  ph2018-08-03s2t08.flac
     6:14.699     107913308 B   cxx   --   ---xx   flac  0.6638  ph2018-08-03s2t09.flac
   176:53.942    3056816156 B                            0.6574  (19 files)

No errors occured.





More information about the bittorrent mailing list