[bittorrent] gd86-06-28.140312.fob-schoepsCMC4.oade.clugston.t-flac16

Automated Mailer noreply-bt.e at etree.org
Sat Aug 4 11:57:15 UTC 2018


Band:           Grateful Dead
Torrent Name:   gd86-06-28.140312.fob-schoepsCMC4.oade.clugston.t-flac16
Uploaded by:    germain
DB Link:        
Details:        http://bt.etree.org/details.php?id=600685

Contact the seeder at http://db.etree.org/germain

If the link to this show does not work, it was probably removed for
being non-trade-friendly.

Description / text file:
-------------------------
This is a tagged version of shnid: 140312

Grateful Dead
Alpine Valley Music Theatre
Alpine Valley, WI
Saturday June 28, 1986

Source Info:
(FOB) Schoeps CMC4/MK41 > Oade M118 > Sony PCM-F1

Transfer Info:
Master Oade PCM (unknown deck/hardware/software) > hard disk > Adobe Audition 3.0 > TLH flac16

Notes:
- Thanks to the Oade brothers and crew for their master recording(s), as well as a proper transfer to hard disk,
and my apologies for not properly acknowledging their efforts sooner
- Thanks to Jim Wise for the hard disk drive
- Thanks to Charlie Miller for coordinating this effort

Mastered by Scott Clugston
December 20, 2017

Set 1:
101-01 Crowd/Tuning
102-02 Hell In A Bucket
103-03 Ramble On Rose
104-04 CC Rider
105-05 Row Jimmy
106-06 Beat It On Down the Line >
107-07 Touch Of Grey >
108-08 Looks Like Rain >
109-09 Don't Ease Me In

Set 2:
201-10 Playin' In The Band >
202-11 Uncle John's Band >
    Jam >
203-12 Drums >
204-13 Space >
205-14 China Doll >
206-15 Playin' In The Band Reprise >
207-16 Goin' Down The Road Feeling Bad >
208-17 Turn On Your Lovelight
209-18 Encore Break
210-19 One More Saturday Night >
211-20 It's All Over Now, Baby Blue
----------------------------------------------------------------------
Tagging Notes:
Show information is embedded within the header of each flac file.
It will display on any player capable of directly playing flac files.
If converted to wav during processing, all tags will be stripped,
 however, the audio data will remain unaffected.
If you must transcode to a Lossy format, do directly flac>Lossy.
Use FFP to validate audio integrity.
MD5 values will change if tagging is altered.

B. Hart 07-30-18
----------------------------------------------------------------------


    length     expanded size    cdr  WAVE problems  fmt   ratio  filename

     1:14.10       13077164 B   ---   --   ---xx   flac  0.4999  gd86-06-28 01 Crowd_Tuning.flac

     6:57.35       73641164 B   ---   --   ---xx   flac  0.5754  gd86-06-28 02 Hell In A Bucket.flac

     7:19.36       77524316 B   ---   --   ---xx   flac  0.5607  gd86-06-28 03 Ramble On Rose.flac

     8:10.39       86527772 B   ---   --   ---xx   flac  0.5435  gd86-06-28 04 CC Rider.flac

    10:26.41      110522876 B   ---   --   ---xx   flac  0.5441  gd86-06-28 05 Row Jimmy.flac

     3:06.26       32871596 B   ---   --   ---xx   flac  0.5733  gd86-06-28 06 Beat It On Down The Line.flac

     5:46.20       61081484 B   ---   --   ---xx   flac  0.5987  gd86-06-28 07 Touch Of Grey.flac

     8:09.23       86313740 B   ---   --   ---xx   flac  0.5525  gd86-06-28 08 Looks Like Rain.flac

     3:59.47       42270188 B   ---   --   ---xx   flac  0.5803  gd86-06-28 09 Don't Ease Me In.flac

     8:13.02       86969948 B   ---   --   ---xx   flac  0.5513  gd86-06-28 10 Playin' In The Band.flac

    13:32.68      143396780 B   ---   --   ---xx   flac  0.5675  gd86-06-28 11 Uncle John's Band.flac

     9:54.37      104868668 B   ---   --   ---xx   flac  0.4906  gd86-06-28 12 Drums.flac

     4:36.36       48771116 B   ---   --   ---xx   flac  0.4717  gd86-06-28 13 Space.flac

     5:39.24       59856092 B   ---   --   ---xx   flac  0.5144  gd86-06-28 14 China Doll.flac

     2:27.18       25973180 B   ---   --   ---xx   flac  0.5568  gd86-06-28 15 Playin' In The Band Reprise.flac

     5:39.71       59966636 B   ---   --   ---xx   flac  0.5692  gd86-06-28 16 Goin' Down The Road Feeling Bad.flac

     5:38.48       59736140 B   ---   --   ---xx   flac  0.5842  gd86-06-28 17 Turn On Your Lovelight.flac

     2:35.05       27353804 B   ---   --   ---xx   flac  0.5298  gd86-06-28 18 Encore Break.flac

     4:33.15       48192524 B   ---   --   ---xx   flac  0.5940  gd86-06-28 19 One More Saturday Night.flac

     7:14.11       76583516 B   ---   --   ---xx   flac  0.5392  gd86-06-28 20 It's All Over Now, Baby Blue.flac


   125:14.12     1325498704 B                            0.5505  (20 files)

No errors occured.






More information about the bittorrent mailing list