[bittorrent] gd86-06-22.140671.fob-schooepsCMC4.oade.clugston.t-flac16

Automated Mailer noreply-bt.e at etree.org
Sat Aug 4 11:05:52 UTC 2018


Band:           Grateful Dead
Torrent Name:   gd86-06-22.140671.fob-schooepsCMC4.oade.clugston.t-flac16
Uploaded by:    germain
DB Link:        
Details:        http://bt.etree.org/details.php?id=600683

Contact the seeder at http://db.etree.org/germain

If the link to this show does not work, it was probably removed for
being non-trade-friendly.

Description / text file:
-------------------------
This is a tagged version of shnid: 140671

Grateful Dead
Greek Theatre
University Of California
Berkeley, CA
Sunday June 22, 1986

Source Info:
(FOB) Schoeps CMC4/MK2 > Oade M118 > Sony PCM-F1

Transfer Info:
Master Oade PCM (unknown deck/hardware/software) > hard disk > Adobe Audition 3.0 > TLH flac16

Notes:
- Thanks to the Oade brothers and crew for their master recording(s), as well as a proper transfer to hard disk
- Thanks to Jim Wise for the hard disk drive
- Thanks to Charlie Miller for coordinating this effort
- Thanks to the folks responsible for the shnid117831 AKG 460 source which supplies a 0:01.5 patch in "Mama Tried", a 0:01 patch in "Truckin'", as well as "Box Of Rain" in its entirety
- Very nice audience capture

Mastered by Scott Clugston
January 10, 2018

Set 1:
101-01 Jack Straw
102-02 It Must Have Been The Roses
103-03 Cassidy
104-04 Row Jimmy
105-05 New Minglewood Blues >
106-06 Big Railroad Blues
107-07 Mama Tried >
108-08 Big River
109-09 Stagger Lee
110-10 Hell In A Bucket >
111-11 Might As Well

Set 2:
201-12 Fire On The Mountain >
202-13 Samson & Delilah
203-14 Ship Of Fools >
204-15 Man Smart (Woman Smarter)>
205-16 Drums >
206-17 Space >
207-18 Truckin' >
208-19 Goin' Down The Road Feeling Bad >
209-20 Stella Blue >
210-21 Turn On Your Lovelight
211-22 Encore Break
212-23 US Blues
213-24 Box Of Rain
---------------------------------------------------------------------
Tagging Notes:
Show information is embedded within the header of each flac file.
It will display on any player capable of directly playing flac files.
If converted to wav during processing, all tags will be stripped,
 however, the audio data will remain unaffected.
If you must transcode to a Lossy format, do directly flac>Lossy.
Use FFP to validate audio integrity.
MD5 values will change if tagging is altered.

B. Hart 07-26-18
---------------------------------------------------------------------


    length     expanded size    cdr  WAVE problems  fmt   ratio  filename
     5:55.22       62673788 B   ---   --   ---xx   flac  0.5829  gd86-06-22 t01 Jack Straw.flac
     6:33.64       69475772 B   ---   --   ---xx   flac  0.5286  gd86-06-22 t02 It Must Have Been The Roses.flac
     7:09.04       75685052 B   ---   --   ---xx   flac  0.5749  gd86-06-22 t03 Cassidy.flac
    10:27.47      110713388 B   ---   --   ---xx   flac  0.5548  gd86-06-22 t04 Row Jimmy.flac
     6:57.39       73650572 B   ---   --   ---xx   flac  0.6219  gd86-06-22 t05 New Minglewood Blues.flac
     6:18.50       66796844 B   ---   --   ---xx   flac  0.5689  gd86-06-22 t06 Big Railroad Blues.flac
     2:25.52       25700348 B   ---   --   ---xx   flac  0.6118  gd86-06-22 t07 Mama Tried.flac
     4:59.19       52788332 B   ---   --   ---xx   flac  0.6237  gd86-06-22 t08 Big River.flac
     5:30.04       58221452 B   ---   --   ---xx   flac  0.5797  gd86-06-22 t09 Stagger Lee.flac
     5:57.01       62977196 B   ---   --   ---xx   flac  0.5998  gd86-06-22 t10 Hell In A Bucket.flac
     4:26.33       47000060 B   ---   --   ---xx   flac  0.6136  gd86-06-22 t11 Might As Well.flac
    10:14.45      108415484 B   ---   --   ---xx   flac  0.5802  gd86-06-22 t12 Fire On The Mountain.flac
     8:55.49       94489292 B   ---   --   ---xx   flac  0.6108  gd86-06-22 t13 Samson & Delilah.flac
     7:27.01       78853196 B   ---   --   ---xx   flac  0.5451  gd86-06-22 t14 Ship Of Fools.flac
     7:56.66       84121676 B   ---   --   ---xx   flac  0.5941  gd86-06-22 t15 Man Smart (Woman Smarter).flac
    11:30.03      121723100 B   ---   --   ---xx   flac  0.4943  gd86-06-22 t16 Drums.flac
    12:58.23      137293340 B   ---   --   ---xx   flac  0.4640  gd86-06-22 t17 Space.flac
     6:42.02       70917548 B   ---   --   ---xx   flac  0.6087  gd86-06-22 t18 Truckin'.flac
     5:30.41       58308476 B   ---   --   ---xx   flac  0.5905  gd86-06-22 t19 Goin' Down The Road Feeling Bad.flac
     8:09.49       86374892 B   ---   --   ---xx   flac  0.5365  gd86-06-22 t20 Stella Blue.flac
     8:50.65       93644924 B   ---   --   ---xx   flac  0.5897  gd86-06-22 t21 Turn On Your Lovelight.flac
     2:30.24       26516492 B   ---   --   ---xx   flac  0.5568  gd86-06-22 t22 Encore Break.flac
     6:49.53       72272300 B   ---   --   ---xx   flac  0.6190  gd86-06-22 t23 US Blues.flac
     5:29.67       58193228 B   ---   --   ---xx   flac  0.5867  gd86-06-22 t24 Box Of Rain.flac
   169:45.73     1796806752 B                            0.5684  (24 files)

No errors occured.



More information about the bittorrent mailing list