[bittorrent] gd86-06-21.141789.mtx.tobin.flac16

Automated Mailer noreply-bt.e at etree.org
Sat Aug 4 11:02:48 UTC 2018


Band:           Grateful Dead
Torrent Name:   gd86-06-21.141789.mtx.tobin.flac16
Uploaded by:    germain
DB Link:        
Details:        http://bt.etree.org/details.php?id=600682

Contact the seeder at http://db.etree.org/germain

If the link to this show does not work, it was probably removed for
being non-trade-friendly.

Description / text file:
-------------------------
Grateful Dead 
June 21, 1986
Greek Theatre 
Berkeley, CA
University Of California

SBD + AUD Matrix 2 Source Mix

Set 1:
d1t01 - Alabama Getaway ->
d1t02 - The Promised Land
d1t03 - Friend of the Devil
d1t04 - C C Rider
d1t05 - Loser
d1t06 - Desolation Row
d1t07 - China Cat Sunflower ->
d1t08 - I Know You Rider

Set 2:
d2t01 - Tuning
d2t02 - Saint of Circumstance ->
d2t03 - Gimme Some Lovin' ->
d2t04 - He's Gone ->
d2t05 - Smokestack Lightnin' ->
d2t06 - Drums ->
d3t01 - Space ->
d3t02 - The Other One ->
d3t03 - Wharf Rat ->
d3t04 - Throwing Stones 
d3t05 - Not Fade Away

Encore:
d3t06 - Not Fade Away Reprise->
d3t07 - Brokedown Palace

Jerry Garcia - Guitar
Bob Weir - Guitar
Brent Mydland - Keyboards
Phil Lesh - Bass
Bill Kreutzmann - Drums
Mickey Hart - Drums

Audio Information:
Original  SBD (shnid = 81518)

Recording Info:
SBD -> Cassette Master (Sony D5/Maxell MX-90)

Transfer Info:
Cassette Master (Tascam 122mkII) -> Apogee MiniMe (24bit/48k) ->
Samplitude Professional v8.01 -> FLAC/16
(2 Discs Audio / 2 Discs FLAC)

All Transfers and Mastering By Charlie Miller
charliemiller87 at earthlink.net 
December 15, 2006

Patch Info:
Schoeps CMC4/MK4>Oade M118>PCM>Audacity>CD supplies (By Oade Bros):
Drums (from 12:36 - 12:41)

Notes:
-- Encore moved to end of 1st Set to fit show onto 2 Discs
-- Seamless transition between 2nd Set and Encore
-- Thanks to Paul Scotton and Joani Walker for the Cassettes
-- He's Gone Deadicated To Len Bias

Original  AUD (shnid = 98673)
Digital Audience Recording
Recorded by Mike Grace and Annie Szvetecz
Lineage: Mike Grace Master PCM
Recording Equipment:
Schoeps CMC42 (Spread Omnis, Spaced 3 Feet Apart with 180 degree angle of incidence) ->
Grace 18v Mic Preamp -> MOD PCM-F1
Recording Location: Official Tapers Section

PCM to DAW Transfer by Mike Grace
Sony SL-HF900 Betamax > Sony PCM-601ESD SPDIF out > RME DIGI9652 sound card SPDF in > Wavelab 4 wav file

Editing and Mastering: Jamie Waddell on the GEMS Edit Station.
Primarily this was emphasis and DC offset removal
Weiss Saracon for 16 BIT  44.1kHz SRC and POWR-3 Dither
Tracked in Wavelab, FLACd Flac Frontend level 8
Tag & Rename for FLAC Meta-Tagging by Bluedakota (todd at bluedakota.com)
A Mike Grace and **GEMS** Production  www.shnflac.net

Both SBD and  AUD were patched with the following:
AUD (shnid = 139049)

source: aud cassette master
taped by Doug Lamarre
sennheiser 441’s > sony d5
maxell mx90’s, dolby b
nakamichi dragon/b > benchmark adc1 @ 24/96
transferred - Rob Berger 2017
---------------------------------------------------------
- Mixed by kevtobin at yahoo.com
- FLAC conversion 28-APR-2018 - Trader Little Helper
- Tagged 28-APR-2018 - Tag&Rename
---------------------------------------------------------
Brokedown House Production

    length     expanded size    cdr  WAVE problems  fmt   ratio  filename
     4:41.04       49577852 B   ---   --   -----    wav  1.0000  gd1986-06-21d1t01.wav
     5:50.47       61850588 B   ---   --   -----    wav  1.0000  gd1986-06-21d1t02.wav
     8:28.31       89684156 B   ---   --   -----    wav  1.0000  gd1986-06-21d1t03.wav
     9:25.22       99717788 B   ---   --   -----    wav  1.0000  gd1986-06-21d1t04.wav
     6:47.42       71893628 B   ---   --   -----    wav  1.0000  gd1986-06-21d1t05.wav
    10:38.03      112550300 B   ---   --   -----    wav  1.0000  gd1986-06-21d1t06.wav
     5:58.54       63278252 B   ---   --   -----    wav  1.0000  gd1986-06-21d1t07.wav
     5:13.66       55368476 B   ---   --   -----    wav  1.0000  gd1986-06-21d1t08.wav
     3:24.31       36058556 B   ---   --   -----    wav  1.0000  gd1986-06-21d2t01.wav
     6:37.14       70063772 B   ---   --   -----    wav  1.0000  gd1986-06-21d2t02.wav
     5:08.74       54505292 B   ---   --   -----    wav  1.0000  gd1986-06-21d2t03.wav
     8:36.59       91161212 B   ---   --   -----    wav  1.0000  gd1986-06-21d2t04.wav
     4:53.24       51741692 B   ---   --   -----    wav  1.0000  gd1986-06-21d2t05.wav
    12:52.62      136326668 B   ---   --   -----    wav  1.0000  gd1986-06-21d2t06.wav
     2:26.67       25912028 B   ---   --   -----    wav  1.0000  gd1986-06-21d3t01.wav
     8:53.04       94030652 B   ---   --   -----    wav  1.0000  gd1986-06-21d3t02.wav
     8:22.34       88632812 B   ---   --   -----    wav  1.0000  gd1986-06-21d3t03.wav
     9:06.63       96462620 B   ---   --   -----    wav  1.0000  gd1986-06-21d3t04.wav
     7:22.28       78034700 B   ---   --   -----    wav  1.0000  gd1986-06-21d3t05.wav
     0:52.46        9281036 B   ---   --   -----    wav  1.0000  gd1986-06-21d3t06.wav
     4:59.60       52884764 B   ---   --   -----    wav  1.0000  gd1986-06-21d3t07.wav
   140:41.10     1489016844 B                            1.0000  (21 files)



More information about the bittorrent mailing list