[bittorrent] gd86-05-11.140257.fob-schoepsCMC4.oade.clugston.t-flac16

Automated Mailer noreply-bt.e at etree.org
Sat Aug 4 10:59:20 UTC 2018


Band:           Grateful Dead
Torrent Name:   gd86-05-11.140257.fob-schoepsCMC4.oade.clugston.t-flac16
Uploaded by:    germain
DB Link:        
Details:        http://bt.etree.org/details.php?id=600681

Contact the seeder at http://db.etree.org/germain

If the link to this show does not work, it was probably removed for
being non-trade-friendly.

Description / text file:
-------------------------
This is a tagged version of shnid:Grateful Dead 140257

Frost Amphitheatre
Stanford University
Palo Alto, CA
Sunday May 11, 1986

Source Info:
(FOB) Schoeps CMC4/MK41 (120 degree ORTF)> Oade M118 > Sony PCM-F1

Transfer Info:
Master Oade PCM (unknown deck/hardware/software) > hard disk > Adobe Audition 3.0 > TLH flac16

Notes:
- Thanks to the Oade brothers and crew for their master recording(s), as well as a proper transfer to hard disk,
and my apologies for not properly acknowledging their efforts sooner
- Thanks to Jim Wise for the hard disk drive
- Thanks to Charlie Miller for coordinating this effort
- Thanks to the folks responsible for the shnid3217 Beyer M88 source which supplies a 0:15 patch in "He's Gone" to eliminate some static/crackle
- PA crackle at approximately 2:16 of Iko Iko (present on all circulating copies)
- To everyone who chanted "Let Phil Sing"......are you happy?
- Other One space included in "The Other One"

Mastered by Scott Clugston
December 15, 2017

Set 1:
101-01 Crowd/Let Phil Sing/Tuning
102-02 Gimme Some Lovin' >
103-03 Dancin' In The Streets
104-04 Never Trust A Woman
105-05 Iko Iko
106-06 My Brother Esau
107-07 It Must Have Been The Roses
108-08 Cassidy >
109-09 Might as Well

Set 2:
201-10 Samson & Delilah >
202-11 Crazy Fingers >
203-12 He's Gone >
204-13 Smokestack Lightning >
205-14 Drums >
206-15 Space >
207-16 The Other One >
208-17 Comes A Time >
209-18 Around & Around >
210-19 Not Fade Away
211-20 Not Fade Away Chant
212-21 I Need A Miracle >
213-22 US Blues
---------------------------------------------------------------------
Tagging Notes:
Show information is embedded within the header of each flac file.
It will display on any player capable of directly playing flac files.
If converted to wav during processing, all tags will be stripped,
 however, the audio data will remain unaffected.
If you must transcode to a Lossy format, do directly flac>Lossy.
Use FFP to validate audio integrity.
MD5 values will change if tagging is altered.

B. Hart 07-26-18
----------------------------------------------------------------------



    length     expanded size    cdr  WAVE problems  fmt   ratio  filename
     6:59.51       74031596 B   ---   --   ---xx   flac  0.4122  gd86-05-11 01 Crowd_Let Phil Sing_Tuning.flac
     5:06.30       54049004 B   ---   --   ---xx   flac  0.5506  gd86-05-11 02 Gimme Some Lovin'.flac
     8:35.56       90977756 B   ---   --   ---xx   flac  0.5323  gd86-05-11 03 Dancin' In The Streets.flac
     6:54.25       73088444 B   ---   --   ---xx   flac  0.4992  gd86-05-11 04 Never Trust A Woman.flac
     7:59.45       84601484 B   ---   --   ---xx   flac  0.5042  gd86-05-11 05 Iko Iko.flac
     4:56.49       52329692 B   ---   --   ---xx   flac  0.5314  gd86-05-11 06 My Brother Esau.flac
     6:54.72       73198988 B   ---   --   ---xx   flac  0.4760  gd86-05-11 07 It Must Have Been The Roses.flac
     5:41.62       60298268 B   ---   --   ---xx   flac  0.5418  gd86-05-11 08 Cassidy.flac
     5:20.08       56466860 B   ---   --   ---xx   flac  0.5396  gd86-05-11 09 Might As Well.flac
     7:25.04       78507452 B   ---   --   ---xx   flac  0.5460  gd86-05-11 10 Samson & Delilah.flac
     8:18.12       87875468 B   ---   --   ---xx   flac  0.4971  gd86-05-11 11 Crazy Fingers.flac
    11:40.22      123531788 B   ---   --   ---xx   flac  0.4931  gd86-05-11 12 He's Gone.flac
     5:04.20       53672684 B   ---   --   ---xx   flac  0.4766  gd86-05-11 13 Smokestack Lightnin'.flac
    12:44.71      134936636 B   ---   --   ---xx   flac  0.4193  gd86-05-11 14 Drums.flac
     4:20.45       45969884 B   ---   --   ---xx   flac  0.4642  gd86-05-11 15 Space.flac
     8:28.38       89700620 B   ---   --   ---xx   flac  0.4836  gd86-05-11 16 The Other One.flac
     6:56.58       73518860 B   ---   --   ---xx   flac  0.4532  gd86-05-11 17 Comes A Time.flac
     3:57.33       41884460 B   ---   --   ---xx   flac  0.5382  gd86-05-11 18 Around & Around.flac
     8:18.45       87953084 B   ---   --   ---xx   flac  0.5270  gd86-05-11 19 Not Fade Away.flac
     3:45.32       39765308 B   ---   --   ---xx   flac  0.4738  gd86-05-11 20 Not Fade Away Chant.flac
     3:04.15       32492924 B   ---   --   ---xx   flac  0.5573  gd86-05-11 21 I Need A Miracle.flac
     5:55.21       62671436 B   ---   --   ---xx   flac  0.5626  gd86-05-11 22 US Blues.flac
   148:28.64     1571522696 B                            0.4978  (22 files)

No errors occured.

 




More information about the bittorrent mailing list