[bittorrent] Michael Veitch The Colony Woodstock, New York 7/31/2018 (Schoeps CCM4V'S FOB)

Automated Mailer noreply-bt.e at etree.org
Fri Aug 3 15:25:27 UTC 2018


Band:           Other
Torrent Name:   Michael Veitch The Colony Woodstock, New York 7/31/2018 (Schoeps CCM4V'S FOB)
Uploaded by:    zmanatl
DB Link:        
Details:        http://bt.etree.org/details.php?id=600665

Contact the seeder at http://db.etree.org/zmanatl

If the link to this show does not work, it was probably removed for
being non-trade-friendly.

Description / text file:
-------------------------
Michael Veitch
The Colony
Woodstock, New York
7/31/2018 

Source: Schoeps CCM4V's>Lunatec V2>Sound Devices 722 (24/44)
FOB/DFC/KFC/ZFC/AARP 9' From Stage, 6 1/2' High
DSP: Sound Devices 722>Sound Forge 10.0>CD Wave>flac(16)
ID3 Tagged In Foobar 2000
Recorded By: Z-Man
Seeded By: Z-Man 

Disc I 

01 Introduction By Julie 
02 Never Been To China
03 *Quarry Man
04 *The Song Writer's Lament
05 *Veteran's Day 
06 *The Lucky Ones 
07 Sunday Driving

* With Julie Last On Vocals

michael2018-07-31d01t01.flac:59140e1226e296c9fa94ed4ab2f9fb6e
michael2018-07-31d01t02.flac:7f97526809f6bc709bbe3585c02062de
michael2018-07-31d01t03.flac:12622f28f2a619141c21c88489975110
michael2018-07-31d01t04.flac:8e68b544b1ef6711f27cf4f6c49a14a7
michael2018-07-31d01t05.flac:29f2c5186ab427473db3ef274fd984a0
michael2018-07-31d01t06.flac:ec9790ec14d05b97156d4bb9435174ce
michael2018-07-31d01t07.flac:6bda52c20d13ad05053273785a733140

length     expanded size    cdr  WAVE problems  fmt   ratio  filename
     0:15.18        2688380 B   ---   --   ---xx   flac  0.2571  michael2018-07-31d01t01.flac
     5:35.60       59235164 B   ---   --   ---xx   flac  0.4080  michael2018-07-31d01t02.flac
     4:33.07       48173708 B   ---   --   ---xx   flac  0.4088  michael2018-07-31d01t03.flac
     6:01.30       63751004 B   ---   --   ---xx   flac  0.3731  michael2018-07-31d01t04.flac
     5:56.34       62878412 B   ---   --   ---xx   flac  0.4274  michael2018-07-31d01t05.flac
     3:49.04       40405052 B   ---   --   ---xx   flac  0.4085  michael2018-07-31d01t06.flac
     4:48.34       50883212 B   ---   --   ---xx   flac  0.4161  michael2018-07-31d01t07.flac
    30:59.37      328014932 B                            0.4051  (7 files)









More information about the bittorrent mailing list