[bittorrent] Midnight North The Wonder Bar Asbury Park, New Jersey 8/1/2018 (Schoeps CCM4V'S FOB)

Automated Mailer noreply-bt.e at etree.org
Fri Aug 3 14:34:19 UTC 2018


Band:           Other
Torrent Name:   Midnight North The Wonder Bar Asbury Park, New Jersey 8/1/2018 (Schoeps CCM4V'S FOB)
Uploaded by:    zmanatl
DB Link:        
Details:        http://bt.etree.org/details.php?id=600663

Contact the seeder at http://db.etree.org/zmanatl

If the link to this show does not work, it was probably removed for
being non-trade-friendly.

Description / text file:
-------------------------
Midnight North
The Wonder Bar
Asbury Park, New Jersey
8/1/2018 

Source: Schoeps CCM4V's>Lunatec V2>Sound Devices 722 (24/44)
BOB/DFC/KFC/ZFC/AARP 17' From Stage, 7' High
DSP: Sound Devices 722>Sound Forge 10.0>CD Wave>flac(16)
ID3 Tagged In Foobar 2000
Recorded By: Z-Man
Seeded By: Z-Man 

Disc I 

01 Miss M
02 Roamin'
03 Don't Do It
04 The Highway Song
05 Earthquakes
06 Playing A Poor Hand Well
07 Danko/Manuel
08 Keep Your Lamps Trimmed And Burnin'

Disc II 

01 Everyday
02 Right Time
03 Cumberland Blues
04 Thanks To The Crew
05 Greene County
06 Under The Lights
Encore:
07 Thanks
08 Tennessee Jed
09 Atlantic City

* With Eric Finland On Keyboards And Vocals The Entire Set

Grahame Lesh - Guitar And Vocals
Elliott Peck - Guitar And Vocals
Connor O'Sullivan - Bass And Vocals
Nathan Graham - Drums

midnight2018-08-01d01t01.flac:c284c53e9d942a2e193b396881481557
midnight2018-08-01d01t02.flac:992e5bd365c7e91eefbbae3b5d95b5c0
midnight2018-08-01d01t03.flac:71484816323e85482c22a0ee40826e58
midnight2018-08-01d01t04.flac:ee14301d6b7fcc7f45e6cddd274151c8
midnight2018-08-01d01t05.flac:e3edc70590c8167aafbc4c338a10fca9
midnight2018-08-01d01t06.flac:2e2827ccfed73b4834b9ce13e7d94572
midnight2018-08-01d01t07.flac:341e15fe8b5f45725c8c3c0d02aa8616
midnight2018-08-01d01t08.flac:443d75ba043970fdeec71c343155d406
midnight2018-08-01d02t01.flac:e946fcda2e1020edf4ee0c159b1127b0
midnight2018-08-01d02t02.flac:1063a143dbd343e4f989983351c49291
midnight2018-08-01d02t03.flac:cb8eb5d3f2904fac49cee688829b739b
midnight2018-08-01d02t04.flac:730694f4e3cf0989dcd64028b7902be1
midnight2018-08-01d02t05.flac:37331e5ef87b96af472abcd9cd1ac778
midnight2018-08-01d02t06.flac:c3d436a90bbd85b4c34370f0883ee5e0
midnight2018-08-01d02t07.flac:a0ea170455cebdbf6bf0472614071460
midnight2018-08-01d02t08.flac:90a9cfd81ef06a8c3a1cca2c69d7139a
midnight2018-08-01d02t09.flac:fcafabb0cd2654fd65cff984652e6520

 length     expanded size    cdr  WAVE problems  fmt   ratio  filename
     5:39.50       59917244 B   ---   --   ---xx   flac  0.4727  midnight2018-08-01d01t01.flac
     8:57.65       94879724 B   ---   --   ---xx   flac  0.4904  midnight2018-08-01d01t02.flac
     7:35.44       80365532 B   ---   --   ---xx   flac  0.5138  midnight2018-08-01d01t03.flac
     4:35.49       48625292 B   ---   --   ---xx   flac  0.4723  midnight2018-08-01d01t04.flac
     7:39.65       81120524 B   ---   --   ---xx   flac  0.4873  midnight2018-08-01d01t05.flac
     6:17.56       66634556 B   ---   --   ---xx   flac  0.4806  midnight2018-08-01d01t06.flac
     9:38.49      102074492 B   ---   --   ---xx   flac  0.4209  midnight2018-08-01d01t07.flac
     6:09.25       65150444 B   ---   --   ---xx   flac  0.4954  midnight2018-08-01d01t08.flac
     7:37.36       80699516 B   ---   --   ---xx   flac  0.4176  midnight2018-08-01d02t01.flac
     6:50.41       72420476 B   ---   --   ---xx   flac  0.4330  midnight2018-08-01d02t02.flac
     8:58.20       94950284 B   ---   --   ---xx   flac  0.4891  midnight2018-08-01d02t03.flac
     1:15.39       13321772 B   ---   --   ---xx   flac  0.3637  midnight2018-08-01d02t04.flac
     6:53.10       72876764 B   ---   --   ---xx   flac  0.4655  midnight2018-08-01d02t05.flac
     5:56.15       62833724 B   ---   --   ---xx   flac  0.5271  midnight2018-08-01d02t06.flac
     2:01.28       21410300 B   ---   --   ---xx   flac  0.3343  midnight2018-08-01d02t07.flac
     7:24.29       78389852 B   ---   --   ---xx   flac  0.4639  midnight2018-08-01d02t08.flac
     7:03.52       74739548 B   ---   --   ---xx   flac  0.4680  midnight2018-08-01d02t09.flac
   110:34.73     1170410044 B                            0.4680  (17 files)





More information about the bittorrent mailing list