[bittorrent] gd86-04-22.140245.fob-schoepsCMC4.oade.clugston.t-flac16

Automated Mailer noreply-bt.e at etree.org
Fri Aug 3 10:38:13 UTC 2018


Band:           Grateful Dead
Torrent Name:   gd86-04-22.140245.fob-schoepsCMC4.oade.clugston.t-flac16
Uploaded by:    germain
DB Link:        
Details:        http://bt.etree.org/details.php?id=600662

Contact the seeder at http://db.etree.org/germain

If the link to this show does not work, it was probably removed for
being non-trade-friendly.

Description / text file:
-------------------------
This is a tagged version of shnid: 140245

Grateful Dead
Berkeley Community Theater
Berkeley, CA
Monday April 22, 1986

Source Info:
(FOB) Schoeps CMC4/MK41 (110 degree ORTF)> Oade M118 > Sony PCM-F1

Transfer Info:
Master Oade PCM (unknown deck/hardware/software) > hard disk > Adobe Audition 3.0 > TLH flac16

Notes:
- Thanks to the Oade brothers and crew for their master recording(s),
as well as a proper transfer to hard disk, and my apologies for not properly acknowledging their efforts sooner
- Thanks to Jim Wise for the hard disk drive
- Thanks to Charlie Miller for coordinating this effort
- Rex Foundation Benefit
- China Cat noodle included in "China Cat Sunflower"
- Spoonful space included in "Spoonful"

Mastered by Scott Clugston
December 13, 2017


Set 1:
101-01 Crowd
102-02 Box Of Rain >
103-03 Visions Of Johanna
104-04 Mama Tried >
105-05 Big River
106-06 Bird Song
107-07 Little Red Rooster
108-08 Deal

Set 2:
201-09 China Cat Sunflower >
202-10 I Know You Rider >
203-11 Looks Like Rain
204-12 Terrapin Station >
Jam >
205-13 Drums >
206-14 Space >
207-15 Spoonful >
208-16 Throwing Stones >
209-17 Black Peter >
210-18 Turn On Your Lovelight
211-19 Encore Break
212-20 Brokedown Palace

----------------------------------------------------------------------
Tagging Notes:
Show information is embedded within the header of each flac file.
It will display on any player capable of directly playing flac files.
If converted to wav during processing, all tags will be stripped,
 however, the audio data will remain unaffected.
If you must transcode to a Lossy format, do directly flac>Lossy.
Use FFP to validate audio integrity.
MD5 values will change if tagging is altered.

B. Hart 07-29-18
----------------------------------------------------------------------

   length     expanded size    cdr  WAVE problems  fmt   ratio  filename

     3:04.62       32603468 B   ---   --   ---xx   flac  0.4646  gd86-04-22 01 Crowd_Tuning.flac

     4:58.62       52713068 B   ---   --   ---xx   flac  0.6165  gd86-04-22 02 Box Of Rain.flac

     9:52.27      104492348 B   ---   --   ---xx   flac  0.5647  gd86-04-22 03 Visions Of Johanna.flac

     2:37.20       27741884 B   ---   --   ---xx   flac  0.6051  gd86-04-22 04 Mama Tried.flac

     6:26.36       68175116 B   ---   --   ---xx   flac  0.6104  gd86-04-22 05 Big River.flac

    12:03.65      127690124 B   ---   --   ---xx   flac  0.5895  gd86-04-22 06 Bird Song.flac

     8:55.71       94541036 B   ---   --   ---xx   flac  0.6063  gd86-04-22 07 Little Red Rooster.flac

     6:42.56       71044556 B   ---   --   ---xx   flac  0.6310  gd86-04-22 08 Deal.flac

     6:58.32       73810508 B   ---   --   ---xx   flac  0.5795  gd86-04-22 09 China Cat Sunflower.flac

     5:12.10       55060364 B   ---   --   ---xx   flac  0.6149  gd86-04-22 10 I Know You Rider.flac

     9:05.47       96248588 B   ---   --   ---xx   flac  0.5645  gd86-04-22 11 Looks Like Rain.flac

    18:16.31      193407356 B   ---   --   ---xx   flac  0.5688  gd86-04-22 12 Terrapin Station.flac

    14:16.17      151038428 B   ---   --   ---xx   flac  0.4911  gd86-04-22 13 Drums.flac

     4:24.54       46696652 B   ---   --   ---xx   flac  0.4506  gd86-04-22 14 Space.flac

     6:29.69       68781932 B   ---   --   ---xx   flac  0.5327  gd86-04-22 15 Spoonful.flac

     7:33.20       79956284 B   ---   --   ---xx   flac  0.5924  gd86-04-22 16 Throwing Stones.flac

     8:04.54       85504652 B   ---   --   ---xx   flac  0.5438  gd86-04-22 17 Black Peter.flac

     4:24.60       46710764 B   ---   --   ---xx   flac  0.6134  gd86-04-22 18 Turn On Your Lovelight.flac
 
     1:26.48       15283340 B   ---   --   ---xx   flac  0.5931  gd86-04-22 19 Encore Break.flac

     5:48.51       61507196 B   ---   --   ---xx   flac  0.5464  gd86-04-22 20 Brokedown Palace.flac


   146:43.67     1553007664 B                            0.5670  (20 files)

No errors occured.






More information about the bittorrent mailing list