[bittorrent] gd86-04-19.140200.fob-schoepsCMC4.oade.clugston.t-flac16

Automated Mailer noreply-bt.e at etree.org
Fri Aug 3 10:28:51 UTC 2018


Band:           Grateful Dead
Torrent Name:   gd86-04-19.140200.fob-schoepsCMC4.oade.clugston.t-flac16
Uploaded by:    germain
DB Link:        
Details:        http://bt.etree.org/details.php?id=600660

Contact the seeder at http://db.etree.org/germain

If the link to this show does not work, it was probably removed for
being non-trade-friendly.

Description / text file:
-------------------------
This is a tagged version of shnid: 140200

Grateful Dead
Berkeley Community Theater
Berkeley, CA
Saturday April 19, 1986

Source Info:
(FOB) Schoeps CMC4/MK41 > Oade M118 > Sony PCM-F1

Transfer Info:
Master Oade PCM (unknown deck/hardware/software) > hard disk > Adobe Audition 3.0 > TLH flac16

Notes:
- Thanks to Jim Wise for the hard disk drive
- Thanks to Charlie Miller for coordinating this effort
- Rex Foundation Benefit
- "Playin' In The Band" clocks in at 23:25, not including the "Playin' Reprise"

Mastered by Scott Clugston
December 10, 2017

Set 1:
101-s1 t01 Crowd
102-s1 t02 Feel Like A Stranger
103-s1 t03 Stagger Lee
104-s1 t04 New Minglewood Blues
105-s1 t05 Friend Of The Devil
106-s1 t06 Cassidy
107-s1 t07 Big Railroad Blues
108-s1 t08 One More Saturday Night

Set 2:
201-s2 t01 Crazy Fingers ->
202-s2 t02 Playin' In The Band ->
203-s2 t03 Drums >
204-s2 t04 Space >
205-s2 t05 The Other One ->
206-s2 t06 China Doll ->
207-s2 t07 Playin' In The Band Reprise ->
208-s2 t08 Sugar Magnolia
209-s2 t09 Encore Break
210-s2 t10 The Mighty Quinn

---------------------------------------------------------------------
Tagging Notes:
Show information is embedded within the header of each flac file.
It will display on any player capable of directly playing flac files.
If converted to wav during processing, all tags will be stripped,
 however, the audio data will remain unaffected.
If you must transcode to a Lossy format, do directly flac>Lossy.
Use FFP to validate audio integrity.
MD5 values will change if tagging is altered.

B. Hart 07-20-18
---------------------------------------------------------------------



    length     expanded size    cdr  WAVE problems  fmt   ratio  filename
     2:27.28       25996700 B   ---   --   ---xx   flac  0.4579  gd86-04-19 s1 t01 Crowd.flac
     9:58.04      105496652 B   ---   --   ---xx   flac  0.6285  gd86-04-19 s1 t02 Feel Like A Stranger.flac
     7:18.02       77267948 B   ---   --   ---xx   flac  0.5930  gd86-04-19 s1 t03 Stagger Lee.flac
     6:52.49       72792092 B   ---   --   ---xx   flac  0.6477  gd86-04-19 s1 t04 New Minglewood Blues.flac
    10:19.57      109325708 B   ---   --   ---xx   flac  0.5764  gd86-04-19 s1 t05 Friend Of The Devil.flac
     5:29.04       58045052 B   ---   --   ---xx   flac  0.6315  gd86-04-19 s1 t06 Cassidy.flac
     6:25.48       68026940 B   ---   --   ---xx   flac  0.6168  gd86-04-19 s1 t07 Big Railroad Blues.flac
     4:54.24       51918092 B   ---   --   ---xx   flac  0.6596  gd86-04-19 s1 t08 One More Saturday Night.flac
     8:07.04       85916252 B   ---   --   ---xx   flac  0.5961  gd86-04-19 s2 t01 Crazy Fingers.flac
    23:25.06      247856156 B   ---   --   ---xx   flac  0.5780  gd86-04-19 s2 t02 Playin' In The Band.flac
     6:35.52       69800348 B   ---   --   ---xx   flac  0.4814  gd86-04-19 s2 t03 Drums.flac
     2:48.05       29647004 B   ---   --   ---xx   flac  0.3908  gd86-04-19 s2 t04 Space.flac
     6:23.24       67617692 B   ---   --   ---xx   flac  0.6032  gd86-04-19 s2 t05 The Other One.flac
     5:44.14       60714572 B   ---   --   ---xx   flac  0.5213  gd86-04-19 s2 t06 China Doll.flac
     3:12.52       33991148 B   ---   --   ---xx   flac  0.6030  gd86-04-19 s2 t07 Playin' In The Band Reprise.flac
     9:33.66      101232476 B   ---   --   ---xx   flac  0.6626  gd86-04-19 s2 t08 Sugar Magnolia.flac
     2:05.35       22132364 B   ---   --   ---xx   flac  0.5596  gd86-04-19 s2 t09 Encore Break.flac
     4:41.26       49629596 B   ---   --   ---xx   flac  0.6454  gd86-04-19 s2 t10 The Mighty Quinn.flac
   126:21.50     1337406792 B                            0.5916  (18 files)

No errors occured.




More information about the bittorrent mailing list