[bittorrent] gd86-04-21.140233.fob-schoepsCMC4.oade.clugston.t-flac16

Automated Mailer noreply-bt.e at etree.org
Fri Aug 3 10:32:20 UTC 2018


Band:           Grateful Dead
Torrent Name:   gd86-04-21.140233.fob-schoepsCMC4.oade.clugston.t-flac16
Uploaded by:    germain
DB Link:        
Details:        http://bt.etree.org/details.php?id=600661

Contact the seeder at http://db.etree.org/germain

If the link to this show does not work, it was probably removed for
being non-trade-friendly.

Description / text file:
-------------------------
This is a tagged version of shnid: 140223

Grateful Dead
Berkeley Community Theater
Berkeley, CA
Monday April 21, 1986

Source Info:
(FOB) Schoeps CMC4/MK41 (110 degree ORTF)> Oade M118 > Sony PCM-F1

Transfer Info:
Master Oade PCM (unknown deck/hardware/software) > hard disk > Adobe Audition 3.0 > TLH flac16

Notes:
- Thanks to the Oade brothers and crew for the master recording(s), as well as a proper transfer to hard disk, and my apologies for not properly acknowledging your efforts sooner.
- Thanks to Jim Wise for the hard disk drive
- Thanks to Charlie Miller for coordinating this effort
- Rex Foundation Benefit
- "Eyes Of The World" with Joe Lorenzo
- "Drums" with Brent
- "Maybe You Know" is Brent, Billy & Mickey only
- Final "Maybe You Know"

Mastered by Scott Clugston
December 11, 2017

Set 1:
101-01 Crowd
102-02 Mississippi Half-Step Uptown Toodeloo >
103-03 El Paso
104-04 Row Jimmy
105-05 My Brother Esau
106-06 Cumberland Blues
107-07 Desolation Row
108-08 Ramble On Rose
109-09 Let It Grow

Set 2:
201-10 Crowd/Tuning
202-11 Touch Of Grey >
203-12 Estimated Prophet >
204-13 Eyes Of The World >
205-14 Drums >
206-15 Maybe You Know >
207-16 Goin' Down The Road Feeling Bad >
208-17 Morning Dew >
209-18 Around & Around >
210-19 Not Fade Away >
211-20 Not Fade Away Chant>
Encore:
212-21 Not Fade Away >
213-22 Don't Ease Me In

--------------------------------------------------------------------
Tagging Notes:
Show information is embedded within the header of each flac file.
It will display on any player capable of directly playing flac files.
If converted to wav during processing, all tags will be stripped,
 however, the audio data will remain unaffected.
If you must transcode to a Lossy format, do directly flac>Lossy.
Use FFP to validate audio integrity.
MD5 values will change if tagging is altered.

B. Hart 07-20-18
--------------------------------------------------------------------



    length     expanded size    cdr  WAVE problems  fmt   ratio  filename
     1:21.27       14351948 B   ---   --   ---xx   flac  0.4799  gd86-04-21 01 Crowd_Tuning.flac
     7:04.04       74803052 B   ---   --   ---xx   flac  0.6009  gd86-04-21 02 Mississippi Half-Step Uptown Toodeloo.flac
     7:05.72       75139388 B   ---   --   ---xx   flac  0.5586  gd86-04-21 03 El Paso.flac
    10:53.69      115351532 B   ---   --   ---xx   flac  0.5491  gd86-04-21 04 Row Jimmy.flac
     6:06.73       64734140 B   ---   --   ---xx   flac  0.5936  gd86-04-21 05 My Brother Esau.flac
     5:45.14       60890972 B   ---   --   ---xx   flac  0.6109  gd86-04-21 06 Cumberland Blues.flac
    12:19.41      130456076 B   ---   --   ---xx   flac  0.5785  gd86-04-21 07 Desolation Row.flac
     8:04.08       85396460 B   ---   --   ---xx   flac  0.5453  gd86-04-21 08 Ramble On Rose.flac
    12:36.72      133527788 B   ---   --   ---xx   flac  0.6053  gd86-04-21 09 Let It Grow.flac
     0:53.00        9349244 B   ---   --   ---xx   flac  0.4549  gd86-04-21 10 Crowd_Tuning.flac
     5:31.57       58522508 B   ---   --   ---xx   flac  0.6490  gd86-04-21 11 Touch Of Grey.flac
    12:38.36      133795916 B   ---   --   ---xx   flac  0.6011  gd86-04-21 12 Estimated Prophet.flac
     9:46.43      103471580 B   ---   --   ---xx   flac  0.6183  gd86-04-21 13 Eyes Of The World.flac
     7:21.71       77959436 B   ---   --   ---xx   flac  0.5711  gd86-04-21 14 Drums.flac
     3:56.58       41766860 B   ---   --   ---xx   flac  0.5730  gd86-04-21 15 Maybe You Know.flac
     5:33.66       58896476 B   ---   --   ---xx   flac  0.6162  gd86-04-21 16 Goin' Down The Road Feeling Bad.flac
     9:45.68      103353980 B   ---   --   ---xx   flac  0.5476  gd86-04-21 17 Morning Dew.flac
     3:42.71       39327836 B   ---   --   ---xx   flac  0.6085  gd86-04-21 18 Around & Around.flac
     7:43.70       81837884 B   ---   --   ---xx   flac  0.5876  gd86-04-21 19 Not Fade Away.flac
     2:24.60       25542764 B   ---   --   ---xx   flac  0.5100  gd86-04-21 20 NFA Chant.flac
     1:26.50       15288044 B   ---   --   ---xx   flac  0.5917  gd86-04-21 21 Not Fade Away.flac
     3:30.20       37091084 B   ---   --   ---xx   flac  0.6400  gd86-04-21 22 Don't Ease Me In.flac
   145:35.00     1540854968 B                            0.5850  (22 files)

No errors occured.




More information about the bittorrent mailing list