[bittorrent] gd86-03-21.142450.sbd.miller.t-flac1648

Automated Mailer noreply-bt.e at etree.org
Thu Aug 2 10:07:01 UTC 2018


Band:           Grateful Dead
Torrent Name:   gd86-03-21.142450.sbd.miller.t-flac1648
Uploaded by:    germain
DB Link:        
Details:        http://bt.etree.org/details.php?id=600643

Contact the seeder at http://db.etree.org/germain

If the link to this show does not work, it was probably removed for
being non-trade-friendly.

Description / text file:
-------------------------
This is a tagged version shnid: 142450

Grateful Dead 
March 21, 1986
Hampton Coliseum 
Hampton, VA

Recording Info:
SBD > Cassette Master > Reel (Technics) > Dat (Panasonic SV-3800/48k)

Transfer Info:
Dat (Sony PCM-R500) > Tascam DA-3000 > Adobe Audition CC2015 > 
Samplitude Pro X3 Suite > FLAC/48k
(2 Discs Audio / 1 DVD FLAC)

Patch Info:
(FOB) Schoeps CMC4/MK41 > Oade M118 > PCM supplies:
Space (4:18 - 4:30)

All Transfers and Mastering by Charlie Miller
charliemiller87 at earthlink.net
June 30, 2018

Notes:
-- Bobby sings Let It Grow over the Supplication Jam and then bails on it
-- Brent teases Supplication Jam before Terrapin Station
-- Thanks to Rob Eaton for the Dats
-- Thanks to the Oade Brothers for the patch source
_______________________________________________________________________________________________

--Set 1--
101-01 - (I'm A) Road Runner
102-02 - Dupree's Diamond Blues
103-03 - New Minglewood Blues
104-04 - Bird Song
105-05 - Tons Of Steel
106-06 - Supplication Jam >
107-07 - Let It Grow

--Set 2--
201-08 - Uncle John's Band >
202-09 - Terrapin Station >
203-10 - Playin' In The Band Reprise >
204-11 - Drums >
205-12 - Space >
206-13 - I Need A Miracle >
207-14 - Stella Blue >
208-15 - Sugar Magnolia

--Encore--
209-16 - Encore Break
210-17 - It's All Over Now, Baby Blue
_______________________________________________________________________________________________

Tagging notes:
Show information is embedded within the header of each flac file.
It will display on any player capable of directly playing flac files.
If converted to wav during processing, all tags will be stripped, 
however audio data will remain unaffected.
If you must transcode to a lossy format, do so directly Flac > Lossy.
Use ffp to validate audio integrity.
Md5 values will change if tagging is altered.
B. Proctor 06-30-2018
_______________________________________________________________________________________________

SHNTOOL OUTPUT:
    length     expanded size    cdr  WAVE problems  fmt   ratio  filename
     5:07.227      58987568 B   cxx   --   ---xx   flac  0.6077  01 (I'm A) Road Runner.flac
     7:15.638      83642504 B   cxx   --   ---xx   flac  0.6023  02 Dupree's Diamond Blues.flac
     7:43.428      88978164 B   cxx   --   ---xx   flac  0.6224  03 New Minglewood Blues.flac
    12:36.288     145207256 B   cxx   --   ---xx   flac  0.6161  04 Bird Song.flac
     4:45.325      54782472 B   cxx   --   ---xx   flac  0.6368  05 Tons Of Steel.flac
     5:16.657      60798180 B   cxx   --   ---xx   flac  0.6119  06 Supplication Jam.flac
    11:33.286     133111000 B   cxx   --   ---xx   flac  0.6089  07 Let It Grow.flac
     8:35.208      98920008 B   cxx   --   ---xx   flac  0.6004  08 Uncle John's Band.flac
    11:23.787     131287092 B   cxx   --   ---xx   flac  0.5990  09 Terrapin Station.flac
     8:36.175      99105584 B   cxx   --   ---xx   flac  0.5863  10 Playing In The Band Reprise.flac
     7:39.237      88173516 B   cxx   --   ---xx   flac  0.5420  11 Drums.flac
     7:18.658      84222352 B   cxx   --   ---xx   flac  0.5361  12 Space.flac
     3:58.765      45842976 B   cxx   --   ---xx   flac  0.6229  13 I Need A Miracle.flac
     7:53.248      90863680 B   cxx   --   ---xx   flac  0.5754  14 Stella Blue.flac
     8:03.061      92747820 B   cxx   --   ---xx   flac  0.6331  15 Sugar Magnolia.flac
     0:54.315      10428584 B   cxx   --   ---xx   flac  0.5012  16 Encore Break.flac
     6:38.877      76584500 B   cxx   --   ---xx   flac  0.5940  17 It's All Over Now, Baby Blue.flac
   125:19.180    1443683256 B                            0.5982  (17 files)




More information about the bittorrent mailing list