[bittorrent] gd86-03-21.142491.mtx.tobin.t-flac16

Automated Mailer noreply-bt.e at etree.org
Thu Aug 2 10:12:25 UTC 2018


Band:           Grateful Dead
Torrent Name:   gd86-03-21.142491.mtx.tobin.t-flac16
Uploaded by:    germain
DB Link:        
Details:        http://bt.etree.org/details.php?id=600644

Contact the seeder at http://db.etree.org/germain

If the link to this show does not work, it was probably removed for
being non-trade-friendly.

Description / text file:
-------------------------
This is a tagged version of shnid:142491

Grateful Dead
March 21, 1986
Hampton Coliseum
Hampton, VA

SBD + AUD Matrix 2 Source Mix (44/16)

Set 1:
101-d1t01 - Tuning
102-d1t02 - (I'm A) Road Runner
103-d1t03 - Dupree's Diamond Blues
104-d1t04 - New Minglewood Blues
105-d1t05 - Bird Song
106-d1t06 - Tons Of Steel
107-d1t07 - Supplication Jam >
108-d1t08 - Let It Grow

Set 2:
201-d2t01 - Uncle John's Band >
202-d2t02 - Terrapin Station >
203-d2t03 - Playin' In The Band Reprise >
204-d2t04 - Drums >
205-d2t05 - Space >
206-d2t06 - I Need A Miracle >
207-d2t07 - Stella Blue >
208-d2t08 - Sugar Magnolia

Encore:
209-d2t09 - It's All Over Now, Baby Blue

Jerry Garcia - Guitar
Bob Weir - Guitar
Brent Mydland - Keyboards
Phil Lesh - Bass
Bill Kreutzmann - Drums
Mickey Hart - Drums

Audio Source Information:
Original SBD (shnid = 142450)
Recording Info:
SBD > Cassette Master > Reel (Technics) > Dat (Panasonic SV-3800/48k)

Transfer Info:
Dat (Sony PCM-R500) > Tascam DA-3000 > Adobe Audition CC2015 > Samplitude Pro X3 Suite >FLAC/48k
(2 Discs Audio / 1 DVD FLAC)

Patch Info:
(FOB) Schoeps CMC4/MK41 > Oade M118 > PCM supplies:
Space (4:18 - 4:30)

All Transfers and Mastering by Charlie Miller
charliemiller87 at earthlink.net
June 30, 2018

Notes:
-- Bobby sings Let It Grow over the Supplication Jam and then bails on it
-- Brent teases Supplication Jam before Terrapin Station
-- Thanks to Rob Eaton for the Dats
-- Thanks to the Oade Brothers for the patch source

Original  AUD (shnid=107555)
Recorded and mastered to cdr by D5scott
Source: 2 Beyer M160 Microphones>Sony TC-D5M - 25 feet from stage
(mic's on a stand @about 51/2 feet)>analog cassette master - Maxell MX90's.

Transfer: Sony TC-D5M (origional record deck)> Pre Sonus Inspire GT> 
Sound Forge> .wav files> Trader's Little Helper> flac and ffp files
---------------------------------------------------------
-
Mixed by kevtobin at yahoo.com
- FLAC conversion 02-JUL-2018
- Trader Little Helper
- Tagged 02-JUL-2018 - Tag&Rename

-----------------------------------------------------------

Tagging Notes:
Show information is embedded within the header of each flac file.
It will display on any player capable of directly playing flac files.
If converted to wav during processing, all tags will be stripped,
 however, the audio data will remain unaffected.
If you must transcode to a Lossy format, do directly flac>Lossy.
Use FFP to validate audio integrity.
MD5 values will change if tagging is altered.

B. Hart 07-03-18
-----------------------------------------------------------
Brokedown House Production



      length     expanded size  cdr  WAVE problems  fmt  ratio   filename

     0:51.55        9125804 B   ---   --   -----    wav  1.0000  gd1986-03-21d1t01.wav

     4:51.56       51464156 B   ---   --   -----    wav  1.0000  gd1986-03-21d1t02.wav
 
     7:31.00       79556444 B   ---   --   -----    wav  1.0000  gd1986-03-21d1t03.wav

     7:50.74       83082092 B   ---   --   -----    wav  1.0000  gd1986-03-21d1t04.wav
 
    14:29.04      153301052 B   ---   --   -----    wav  1.0000  gd1986-03-21d1t05.wav

     4:44.62       50243468 B   ---   --   -----    wav  1.0000  gd1986-03-21d1t06.wav
 
     5:16.49       55857692 B   ---   --   -----    wav  1.0000  gd1986-03-21d1t07.wav

    11:34.26      122482796 B   ---   --   -----    wav  1.0000  gd1986-03-21d1t08.wav
 
     8:56.15       94585724 B   ---   --   -----    wav  1.0000  gd1986-03-21d2t01.wav
 
    11:24.44      120761132 B   ---   --   -----    wav  1.0000  gd1986-03-21d2t02.wav
 
     8:37.02       91203548 B   ---   --   -----    wav  1.0000  gd1986-03-21d2t03.wav

     7:39.58       81104060 B   ---   --   -----    wav  1.0000  gd1986-03-21d2t04.wav

     7:14.16       76595276 B   ---   --   -----    wav  1.0000  gd1986-03-21d2t05.wav

     4:08.47       43857788 B   ---   --   -----    wav  1.0000  gd1986-03-21d2t06.wav

     7:48.63       82703420 B   ---   --   -----    wav  1.0000  gd1986-03-21d2t07.wav

     8:18.63       87995420 B   ---   --   -----    wav  1.0000  gd1986-03-21d2t08.wav
 
     6:39.08       70402460 B   ---   --   -----    wav  1.0000  gd1986-03-21d2t09.wav


   127:57.42     1354322332 B                            1.0000  (17 files)




More information about the bittorrent mailing list