[bittorrent] gd86-03-23.142392.sbd.miller.t-flac1648

Automated Mailer noreply-bt.e at etree.org
Thu Aug 2 10:17:08 UTC 2018


Band:           Grateful Dead
Torrent Name:   gd86-03-23.142392.sbd.miller.t-flac1648
Uploaded by:    germain
DB Link:        
Details:        http://bt.etree.org/details.php?id=600645

Contact the seeder at http://db.etree.org/germain

If the link to this show does not work, it was probably removed for
being non-trade-friendly.

Description / text file:
-------------------------
This is a tagged version of shnid: 142392

Grateful Dead
March 23, 1986
The Spectrum - Philadelphia, PA

Recording Info:
SBD > Cassette Master > Reel (Technics) > Dat (Panasonic SV-3800/48k)

Transfer Info:
Dat (Sony PCM-R500) > Tascam DA-3000 > Adobe Audition CC2015 > Samplitude Pro X3 Suite > FLAC/48k
(3 Discs Audio / 1 DVD FLAC)

Patch Info:
(FOB) Schoeps CMC4/MK41 > Oade M118 > PCM supplies:
Drums (8:22 - 8:46)

All Transfers and Mastering by Charlie Miller
charliemiller87 at earthlink.net
June 24, 2018

Notes:
- Thanks to Rob Eaton for the Dats
- Thanks to the Oade Brothers for the patch source

Set One:
101-01 - Gimme Some Lovin'> 
102-02 - Deal
103-03 - Willie And The Hand Jive
104-04 - Candyman
105-05 - Cassidy
106-06 - West L.A. Fadeaway
107-07 - Mama Tried >
108-08 - Big River109-09 - Might As Well

Set Two:
201-10 - Shakedown Street >
202-11 - Samson And Delilah
203-12 - He's Gone >
204-13 - Spoonful >
205-14 - Drums >
206-15 - Space >
207-16 - The Other One >
208-17 - Comes A Time >
209-18 - Good Lovin'

Encore:
210-19 - Keep Your Day Job




Tagging Notes:
Show information is embedded within the header of each flac file.
It will display on any player capable of directly playing flac files.
If converted to wav during processing, all tags will be stripped, 
however, the audio data will remain unaffected.
If you must transcode to a Lossy format, do directly flac>Lossy.
Use FFP to validate audio integrity.
MD5 values will change if tagging is altered.

B. Hart 06-30-18


SHNTOOL OUTPUT:
 
   length     expanded size    cdr  WAVE problems  fmt   ratio  filename
  
   5:14.488      60381744 B   cxx   --   ---xx   flac  0.6553  01 Gimme Some Lovin.flac
 
   7:45.795      89432668 B   cxx   --   ---xx   flac  0.6698  02 Deal.flac
 
   6:40.933      76979144 B   cxx   --   ---xx   flac  0.6374  03 Hand Jive.flac
   
   6:41.438      77076128 B   cxx   --   ---xx   flac  0.6446  04 Candyman.flac
   
   5:38.013      64898460 B   cxx   --   ---xx   flac  0.6494  05 Cassidy.flac
  
   7:53.291      90871964 B   cxx   --   ---xx   flac  0.6609  06 West LA Fadeaway.flac
 
   2:34.246      29615308 B   cxx   --   ---xx   flac  0.6535  07 Mama Tried.flac
 
   5:05.340      58625232 B   cxx   --   ---xx   flac  0.6641  08 Big River.flac
 
   4:32.097      52242760 B   cxx   --   ---xx   flac  0.6725  09 Might As Well.flac
 
  12:14.069     140941320 B   cxx   --   ---xx   flac  0.6590  10 Shakedown Street.flac
  
   7:51.622      90551552 B   cxx   --   ---xx   flac  0.6635  11 Samson And Delilah.flac
 
  11:43.619     135094828 B   cxx   --   ---xx   flac  0.6432  12 He's Gone.flac
  
   5:36.806      64666792 B   cxx   --   ---xx   flac  0.6413  13 Spoonful.flac
 
  12:09.228     140011864 B   cxx   --   ---xx   flac  0.5974  14 Drums.flac
  
   7:36.069      87565336 B   cxx   --   ---xx   flac  0.5619  15 Space.flac
  
   5:56.677      68481992 B   cxx   --   ---xx   flac  0.6256  16 The Other One.flac
   
   7:47.107      89684584 B   cxx   --   ---xx   flac  0.6162  17 Comes A Time.flac
  
   8:33.074      98510316 B   cxx   --   ---xx   flac  0.6407  18 Good Lovin'.flac
  
   4:15.912      49135128 B   cxx   --   ---xx   flac  0.6549  19 Keep Your Day Job.flac
 
 135:49.824    1564767120 B                            0.6400  (19 files)




More information about the bittorrent mailing list