[bittorrent] gd86-02-14.142247.sbd.pcm.gans-miller.t-flac16

Automated Mailer noreply-bt.e at etree.org
Wed Aug 1 10:21:28 UTC 2018


Band:           Grateful Dead
Torrent Name:   gd86-02-14.142247.sbd.pcm.gans-miller.t-flac16
Uploaded by:    germain
DB Link:        
Details:        http://bt.etree.org/details.php?id=600629

Contact the seeder at http://db.etree.org/germain

If the link to this show does not work, it was probably removed for
being non-trade-friendly.

Description / text file:
-------------------------
This is a tagged version of shnid: 142427

Grateful Dead 
February 14, 1986
Henry J. Kaiser Convention Center 
Oakland, CA

Recording Info:
SBD > PCM (Vault Master) > Dat Clone (44.1k)

Transfer Info:
Dat (Sony PCM-R500) > Tascam DA-3000 > Samplitude Pro X3 Suite > FLAC/16
(2 Discs Audio / 1 DVD FLAC)

All Transfers and Mastering by Charlie Miller
charliemiller87 at earthlink.net
June 27, 2018

Notes:
-- Thanks to David Gans for the Dats
-- This is an upgrade to shnid's 10921 and 11625
_____________________________________________________________________________________________

--Set 1--
101-01 - Tuning
102-02 - Feel Like A Stranger >
103-03 - Cold Rain & Snow
104-04 - Mama Tried >
105-05 - Big River
106-06 - West LA Fadeaway
107-07 - Looks Like rain >
108-08 - Brown Eyed Women
109-09 - Let It Grow

--Set 2--
201-10 - Tuning
202-11 - Keep On Growing >
203-12 - Lost Sailor >
204-13 - Saint Of Circumstance >
205-14 - Terrapin Station >
206-15 - Drums >
207-16 - Space >
208-17 - Wharf Rat >
209-18 - Throwing Stones >
210-19 - Turn On Your Lovelight

--Encore--
211-20 - Encore Break
212-21 - Brokedown Palace
_____________________________________________________________________________________________

Tagging notes:
Show information is embedded within the header of each flac file.
It will display on any player capable of directly playing flac files.
If converted to wav during processing, all tags will be stripped, 
however audio data will remain unaffected.
If you must transcode to a lossy format, do so directly Flac > Lossy.
Use ffp to validate audio integrity.
Md5 values will change if tagging is altered.
B. Proctor 06-30-2018
_____________________________________________________________________________________________

SHNTOOL OUTPUT:
    length     expanded size    cdr  WAVE problems  fmt   ratio  filename
     3:18.13       34957820 B   ---   --   ---xx   flac  0.4331  01 Tuning.flac
     8:43.19       92301932 B   ---   --   ---xx   flac  0.6408  02 Feel Like A Stranger.flac
     8:39.53       91676300 B   ---   --   ---xx   flac  0.5785  03 Cold Rain And Snow.flac
     2:38.10       27894764 B   ---   --   ---xx   flac  0.6310  04 Mama Tried.flac
     5:57.38       63064220 B   ---   --   ---xx   flac  0.6290  05 Big River.flac
     8:31.27       90203948 B   ---   --   ---xx   flac  0.5836  06 West LA Fadeaway.flac
     8:22.71       88719836 B   ---   --   ---xx   flac  0.5842  07 Looks Like Rain.flac
     4:56.07       52230908 B   ---   --   ---xx   flac  0.6206  08 Brown Eyed Women.flac
    11:22.17      120344828 B   ---   --   ---xx   flac  0.6110  09 Let It Grow.flac
     1:17.15       13618124 B   ---   --   ---xx   flac  0.4307  10 Tuning.flac
     4:35.26       48571196 B   ---   --   ---xx   flac  0.6356  11 Keep On Growing.flac
     7:12.50       76322444 B   ---   --   ---xx   flac  0.5690  12 Lost Sailor.flac
     6:19.70       67020284 B   ---   --   ---xx   flac  0.6457  13 Saint Of Circumstance.flac
    12:03.50      127654844 B   ---   --   ---xx   flac  0.6205  14 Terrapin Station.flac
     8:15.56       87449756 B   ---   --   ---xx   flac  0.4846  15 Drums.flac
     5:25.39       57421772 B   ---   --   ---xx   flac  0.4892  16 Space.flac
     8:03.04       85210652 B   ---   --   ---xx   flac  0.6183  17 Wharf Rat.flac
     9:12.52       97495148 B   ---   --   ---xx   flac  0.6045  18 Throwing Stones.flac
     5:28.10       57882764 B   ---   --   ---xx   flac  0.6441  19 Turn On Your Lovelight.flac
     0:53.27        9412748 B   ---   --   ---xx   flac  0.4769  20 Encore Break.flac
     5:15.48       55678940 B   ---   --   ---xx   flac  0.5983  21 Brokedown Palace.flac
   136:32.27     1445133228 B                            0.5915  (21 files)




More information about the bittorrent mailing list