[bittorrent] gd86-02-09.138522.mtx.tobin.flac16

Automated Mailer noreply-bt.e at etree.org
Wed Aug 1 10:18:14 UTC 2018


Band:           Grateful Dead
Torrent Name:   gd86-02-09.138522.mtx.tobin.flac16
Uploaded by:    germain
DB Link:        
Details:        http://bt.etree.org/details.php?id=600628

Contact the seeder at http://db.etree.org/germain

If the link to this show does not work, it was probably removed for
being non-trade-friendly.

Description / text file:
-------------------------
Grateful Dead
Henry J. Kaiser Convention Center,
Oakland, CA
February 9, 1986

SBD + AUD Matrix 2 Source Mix

Set 1:
d1t01 - Tuning
d1t02 - Jack Straw
d1t03 - They Love Each Other
d1t04 - C C Rider
d1t05 - Loser
d1t06 - Man Smart (Woman Smarter)
d1t07 - Deal

Set 2:
d2t01 - The Mighty Quinn (Quinn The Eskimo) ->
d2t02 - Samson And Delilah
d2t03 - He's Gone ->
d2t04 - Smokestack Lightnin' ->
d2t05 - Comes A Time ->
d2t06 - Drums ->
d2t07 - Space ->
d2t08 - The Other One ->
d2t09 - Around And Around ->
d2t10 - Good Lovin'

Encore:
d2t11 - It's All Over Now, Baby Blue

Jerry Garcia - Guitar
Bob Weir - Guitar
Brent Mydland - Keyboards
Phil Lesh - Bass
Bill Kreutzmann - Drums
Mickey Hart - Drums

Audio Information:
Original  SBD (shnid = 106119)

Recording Info:
SBD -> Cassette Master (Sony D5/Dolby B/TDK MA-R90)

Transfer Info:
Cassette Master (Nakamichi DR-1/Dolby B) -> Sound Devices 744T (24bit/96k) ->
Samplitude Professional v11.03 -> FLAC/16
(2 Discs Audio / 2 Discs FLAC)

All Transfers and Mastering By Charlie Miller
charliemiller87 at earthlink.net
February 17, 2010

Patch Info:
Schoeps CMC4/MK41 -> PCM -> Dat (shnid=74135) supplies:
Deal (0:00 - 0:08)
Space (5:49 - 6:24)

Notes:
-- Thanks to Joani Walker and Paul Scotton for the tapes

Original  AUD (shnid = 74135)

A 16bit 44.1kHz GEM
Source:
Schoeps CMC 441 (hypercardioids) > PCM F1 "probably by the Oades who I probably got it from in trade" - RG

Transferred by Rich Gastwirt (taper at gastwirt.org)
Sony PCM 601 > Sony DTC 2000ES > DAT > M-Audio Delta 410 > SoundForge 44.1kHz wav

Edited by James E. (BlingFree at shnflac.net)
*Adobe Audition 1.5 > shntool > flac (8)
---------------------------------------------------------
- Mixed by kevtobin at yahoo.com
- FLAC conversion 12-JUN-2017 - Trader Little Helper
- Tagged 12-JUN-2017 - Tag&Rename
---------------------------------------------------------

Brokedown House Production

    length     expanded size    cdr  WAVE problems  fmt   ratio  filename
     1:13.28       12943100 B   ---   --   -----    wav  1.0000  gd1986-02-09d1t01.wav
     5:21.13       56655020 B   ---   --   -----    wav  1.0000  gd1986-02-09d1t02.wav
     8:44.11       92459516 B   ---   --   -----    wav  1.0000  gd1986-02-09d1t03.wav
     7:32.01       79735196 B   ---   --   -----    wav  1.0000  gd1986-02-09d1t04.wav
     7:00.59       74226812 B   ---   --   -----    wav  1.0000  gd1986-02-09d1t05.wav
     6:39.47       70494188 B   ---   --   -----    wav  1.0000  gd1986-02-09d1t06.wav
     6:48.65       72124124 B   ---   --   -----    wav  1.0000  gd1986-02-09d1t07.wav
     4:05.26       43279196 B   ---   --   -----    wav  1.0000  gd1986-02-09d2t01.wav
     7:40.05       81155804 B   ---   --   -----    wav  1.0000  gd1986-02-09d2t02.wav
     9:41.10      102511964 B   ---   --   -----    wav  1.0000  gd1986-02-09d2t03.wav
     4:12.52       44575148 B   ---   --   -----    wav  1.0000  gd1986-02-09d2t04.wav
     8:47.09       92984012 B   ---   --   -----    wav  1.0000  gd1986-02-09d2t05.wav
     7:31.59       79695212 B   ---   --   -----    wav  1.0000  gd1986-02-09d2t06.wav
     5:31.17       58428428 B   ---   --   -----    wav  1.0000  gd1986-02-09d2t07.wav
     6:28.08       68462060 B   ---   --   -----    wav  1.0000  gd1986-02-09d2t08.wav
     3:50.54       40699052 B   ---   --   -----    wav  1.0000  gd1986-02-09d2t09.wav
     8:58.06       94917356 B   ---   --   -----    wav  1.0000  gd1986-02-09d2t10.wav
     6:49.62       72293468 B   ---   --   -----    wav  1.0000  gd1986-02-09d2t11.wav
   116:56.07     1237639656 B                            1.0000  (18 files)



More information about the bittorrent mailing list