[bittorrent] gd86-07-07.088176.ifm.cm.gale.miller.t-flac16

Automated Mailer noreply-bt.e at etree.org
Wed Aug 1 09:59:00 UTC 2018


Band:           Grateful Dead
Torrent Name:   gd86-07-07.088176.ifm.cm.gale.miller.t-flac16
Uploaded by:    germain
DB Link:        
Details:        http://bt.etree.org/details.php?id=600626

Contact the seeder at http://db.etree.org/germain

If the link to this show does not work, it was probably removed for
being non-trade-friendly.

Description / text file:
-------------------------
This is a tagged version of shnid: 88176

Grateful Dead 
July 7, 1986
RFK Stadium 
Washington, DC

Recording Info:
In-House FM -> FM Receiver -> Cassette Master (Sony TC-D6C/Denon HD-M90)

Transfer Info:
Cassette Master (Nakamichi DR-1) -> Sound Devices 744T (24bit/48k) ->
Samplitude Professional v9.11 -> FLAC/16
(2 Discs Audio / 2 Discs FLAC)

All Transfers and Mastering By Charlie Miller
charliemiller87 at earthlink.net
November 2, 2007

Patch Info:
(FOB) Schoeps CMC3/MK4 -> PCM -> Dat -> CD supplies:
Desolation Row (set break announcement)
Space (0:14 - 0:55)

Notes:
-- Thanks to Dan Gale for lending me his masters
-- It's All Over Now, Baby Blue and Desolation Row with Bob Dylan
-- Some FM static in Box Of Rain and Wharf Rat
-- I cleaned up as much of the static as possible
____________________________________________________________________________

--Set 1--
101-d1t01 - Tuning
102-d1t02 - Ramble on Rose
103-d1t03 - New Minglewood Blues
104-d1t04 - It Must Have Been the Roses
105-d1t05 - It's All Over Now, Baby Blue
106-d1t06 - Desolation Row

--Set 2--
201-d2t01 - Box of Rain
202-d2t02 - Playing in the Band ->
203-d2t03 - Terrapin Station ->
204-d2t04 - Drums ->
205-d2t05 - Space ->
206-d2t06 - The Other One ->
207-d2t07 - Wharf Rat ->
208-d2t08 - Around & Around ->
209-d2t09 - Good Lovin'

--Encore--
210-d2t10 - (I Can't Get No) Satisfaction
____________________________________________________________________________

Tagging notes:
Show information is embedded within the header of each flac file.
It will display on any player capable of directly playing flac files.
If converted to wav during processing, all tags will be stripped, however
audio data will remain unaffected.
If you must transcode to a lossy format, do so directly Flac > Lossy.
Use ffp to validate audio integrity.
Md5 values will change if tagging is altered.
B. Proctor 9-22-2013
___________________________________________________________________________

SHNTOOL OUTPUT:
    length     expanded size   cdr  WAVE problems filename
     2:10.51       23051996    ---   --   -----   gd86-07-07d1t01.wav
     7:15.62       76879868    ---   --   -----   gd86-07-07d1t02.wav
     7:07.08       75341660    ---   --   -----   gd86-07-07d1t03.wav
     6:31.50       69090044    ---   --   -----   gd86-07-07d1t04.wav
     6:29.52       68741948    ---   --   -----   gd86-07-07d1t05.wav
    11:13.34      118797212    ---   --   -----   gd86-07-07d1t06.wav
     5:13.10       55236764    ---   --   -----   gd86-07-07d2t01.wav
     8:45.70       92774684    ---   --   -----   gd86-07-07d2t02.wav
     8:52.74       94018892    ---   --   -----   gd86-07-07d2t03.wav
    13:10.16      139393676    ---   --   -----   gd86-07-07d2t04.wav
     2:42.57       28710908    ---   --   -----   gd86-07-07d2t05.wav
     4:29.29       47519852    ---   --   -----   gd86-07-07d2t06.wav
     6:59.26       73972796    ---   --   -----   gd86-07-07d2t07.wav
     3:39.55       38761004    ---   --   -----   gd86-07-07d2t08.wav
     8:45.00       92610044    ---   --   -----   gd86-07-07d2t09.wav
     7:33.69       80071532    ---   --   -----   gd86-07-07d2t10.wav
   111:00.63     1174972880 B                     (totals for 16 files)




More information about the bittorrent mailing list