[bittorrent] joncleary2017-01-27.csc.sirmick.flac24

Automated Mailer noreply-bt.e at etree.org
Mon Jan 30 07:09:43 UTC 2017


Band:           Other
Torrent Name:   joncleary2017-01-27.csc.sirmick.flac24
Uploaded by:     SIRMick
DB Link:        
Details:        http://bt.etree.org/details.php?id=591111

Contact the seeder at http://db.etree.org/ SIRMick

If the link to this show does not work, it was probably removed for
being non-trade-friendly.

Description / text file:
-------------------------
Jon Cleary Trio
Ronnie Scott's
London, England
01/27/2017


Source: Core Sound Cardioids > Core Sound Battery Box > Sony PCM-M10 > wav 24/96
Lineage: wav 24/96 > Adobe Audition 3.0.1 > iZotope Ozone 5 Advanced >
         iZotope RX4 Advanced > CD Wave > TLH > Flac24



01   intro
02   Fools Game
03   Mardi Gras Mambo
04   Getcha GoGo Juice
05   So Damn Good
06   Beg, Steal Or Borrow
07   Let's Get Low Down
08   Frenchmen Street Blues 
09   Just Kissed My Baby/Loose Booty
10   21st Century Gypsy Singin' Lover Man
11   Until The Real Thing Comes Along *
12   Poor Boy Blues
13   Smile In A While
14   When You Get Back
15   Pump It Up
16   -----encore break-----

encore

17   More Hipper (including band intros)



Jon Cleary - keyboards, cowbell, vocals
Cornell Williams - bass, vocals
A.J. Hall - drums, vocals



Comments:

- This was my first time at Ronnie Scott's.  It's the perfect place to record a show because they do not allow
  any talking during the performance and this is more or less respected by the audience.
- Jon refers to this track as Sweet Dolly Daydream but that was, in fact, his grandmother's stage name. *


Notes:

- The mic jack came a little loose around 2:15 of "Fool's Game" for about 10 seconds, I've repaired it as best I can.




recorded, edited and mastered
SIRMick
January 2017


shntool ouput:

    length     expanded size    cdr  WAVE problems  fmt   ratio  filename
     1:37.507      56163884 B   cxx   --   ---xx   flac  0.5145  joncleary2017-01-27t01.flac
     6:11.773     214141484 B   cxx   --   ---xx   flac  0.5826  joncleary2017-01-27t02.flac
     3:02.947     105377324 B   cxx   --   ---xx   flac  0.5759  joncleary2017-01-27t03.flac
     5:37.800     194572844 B   cxx   --   ---xx   flac  0.6000  joncleary2017-01-27t04.flac
     4:54.773     169789484 B   cxx   --   ---xx   flac  0.5899  joncleary2017-01-27t05.flac
     4:43.693     163407404 B   cxx   --   ---xx   flac  0.5739  joncleary2017-01-27t06.flac
     6:43.613     232481324 B   cxx   --   ---xx   flac  0.5864  joncleary2017-01-27t07.flac
     6:25.133     221836844 B   cxx   --   ---xx   flac  0.5316  joncleary2017-01-27t08.flac
     6:36.880     228602924 B   cxx   --   ---xx   flac  0.5817  joncleary2017-01-27t09.flac
     6:32.813     226260524 B   cxx   --   ---xx   flac  0.5561  joncleary2017-01-27t10.flac
     4:36.400     159206444 B   cxx   --   ---xx   flac  0.5071  joncleary2017-01-27t11.flac
     2:55.027     100815404 B   cxx   --   ---xx   flac  0.5297  joncleary2017-01-27t12.flac
     3:43.053     128478764 B   cxx   --   ---xx   flac  0.5782  joncleary2017-01-27t13.flac
     7:55.373     273815084 B   cxx   --   ---xx   flac  0.5771  joncleary2017-01-27t14.flac
     3:55.387     135582764 B   cxx   --   ---xx   flac  0.6088  joncleary2017-01-27t15.flac
     1:02.333      35904044 B   cxx   --   ---xx   flac  0.5649  joncleary2017-01-27t16.flac
     9:22.293     323881004 B   cxx   --   ---xx   flac  0.5909  joncleary2017-01-27t17.flac
    85:56.800    2970317548 B                            0.5719  (17 files)






More information about the bittorrent mailing list