[bittorrent] joncleary2017-01-27.csc.sirmick.flac16

Automated Mailer noreply-bt.e at etree.org
Mon Jan 30 06:54:29 UTC 2017


Band:           Other
Torrent Name:   joncleary2017-01-27.csc.sirmick.flac16
Uploaded by:     SIRMick
DB Link:        
Details:        http://bt.etree.org/details.php?id=591110

Contact the seeder at http://db.etree.org/ SIRMick

If the link to this show does not work, it was probably removed for
being non-trade-friendly.

Description / text file:
-------------------------
Jon Cleary Trio
Ronnie Scott's
London, England
01/27/2017


Source: Core Sound Cardioids > Core Sound Battery Box > Sony PCM-M10 > wav 24/96
Lineage: wav 24/96 > Adobe Audition 3.0.1 > iZotope Ozone 5 Advanced >
         iZotope RX4 Advanced > wav 16/44.1 > CD Wave > TLH > Flac16



01   intro
02   Fools Game
03   Mardi Gras Mambo
04   Getcha GoGo Juice
05   So Damn Good
06   Beg, Steal Or Borrow
07   Let's Get Low Down
08   Frenchmen Street Blues 
09   Just Kissed My Baby/Loose Booty
10   21st Century Gypsy Singin' Lover Man
11   Until The Real Thing Comes Along *
12   Poor Boy Blues
13   Smile In A While
14   When You Get Back
15   Pump It Up
16   -----encore break-----

encore

17   More Hipper (including band intros)



Jon Cleary - keyboards, cowbell, vocals
Cornell Williams - bass, vocals
A.J. Hall - drums, vocals



Comments:

- This was my first time at Ronnie Scott's.  It's the perfect place to record a show because they do not allow
  any talking during the performance and this is more or less respected by the audience.
- Jon refers to this track as Sweet Dolly Daydream but that was, in fact, his grandmother's stage name. *


Notes:

- The mic jack came a little loose around 2:15 of "Fool's Game" for about 10 seconds, I've repaired it as best I can.




recorded, edited and mastered
SIRMick
January 2017


shntool ouput:

    length     expanded size    cdr  WAVE problems  fmt   ratio  filename
     1:37.38       17200220 B   ---   --   ---xx   flac  0.3838  joncleary2017-01-27t01.flac
     6:11.58       65580860 B   ---   --   ---xx   flac  0.5616  joncleary2017-01-27t02.flac
     3:02.71       32271836 B   ---   --   ---xx   flac  0.5424  joncleary2017-01-27t03.flac
     5:37.60       59587964 B   ---   --   ---xx   flac  0.6033  joncleary2017-01-27t04.flac
     4:54.58       51998060 B   ---   --   ---xx   flac  0.5700  joncleary2017-01-27t05.flac
     4:43.52       50043548 B   ---   --   ---xx   flac  0.5327  joncleary2017-01-27t06.flac
     6:43.46       71197436 B   ---   --   ---xx   flac  0.5674  joncleary2017-01-27t07.flac
     6:25.10       67937564 B   ---   --   ---xx   flac  0.4240  joncleary2017-01-27t08.flac
     6:36.66       70009676 B   ---   --   ---xx   flac  0.5541  joncleary2017-01-27t09.flac
     6:32.61       69292316 B   ---   --   ---xx   flac  0.4863  joncleary2017-01-27t10.flac
     4:36.30       48757004 B   ---   --   ---xx   flac  0.3575  joncleary2017-01-27t11.flac
     2:55.02       30874748 B   ---   --   ---xx   flac  0.4184  joncleary2017-01-27t12.flac
     3:43.04       39346652 B   ---   --   ---xx   flac  0.5429  joncleary2017-01-27t13.flac
     7:55.28       83855900 B   ---   --   ---xx   flac  0.5402  joncleary2017-01-27t14.flac
     3:55.29       41522252 B   ---   --   ---xx   flac  0.6154  joncleary2017-01-27t15.flac
     1:02.25       10995644 B   ---   --   ---xx   flac  0.5154  joncleary2017-01-27t16.flac
     9:22.22       99188588 B   ---   --   ---xx   flac  0.5756  joncleary2017-01-27t17.flac
    85:56.60      909660268 B                            0.5279  (17 files)





More information about the bittorrent mailing list