[bittorrent] gd1979-11-10.137673.GTH.miller.flac16

Automated Mailer noreply-bt.e at etree.org
Sun Jan 29 23:16:42 UTC 2017


Band:           Grateful Dead
Torrent Name:   gd1979-11-10.137673.GTH.miller.flac16
Uploaded by:    greendude
DB Link:        
Details:        http://bt.etree.org/details.php?id=591095

Contact the seeder at http://db.etree.org/greendude

If the link to this show does not work, it was probably removed for
being non-trade-friendly.

Description / text file:
-------------------------
Grateful Dead - Go To Heaven
Betty's Rough Mix - November 10, 1979

Recording Info:
SBD > Master Reels (24-track) > Betty's Cassette (Maxell UD-XLII)

Transfer Info:
Cassette (Nakamichi CR-7A) > Tascam DA-3000 (DSF 1-bit/5.8 MHz) >
KORG AudioGate 4 > Samplitude Pro X3 Suite > FLAC/24
(1 Disc FLAC)

All Transfers and Mastering By Charlie Miller
charliemiller87 at earthlink.net
January 22, 2017

Notes:
-- This is a rough mix-down Betty made of alternate takes
-- This is 137649 24 bit > 16 bit with r8brain

Track List:
01 - Far From Me
02 - Althea
03 - Feel Like A Stranger
04 - Alabama Getaway
05 - Don't Ease Me In
06 - Easy To Love You
07 - Lost Sailor
08 - Saint Of Circumstance


SHNTOOL OUTPUT:
    length     expanded size    cdr  WAVE problems  fmt   ratio  filename
     3:45.10       39713564 B   ---   --   ---xx   flac  0.6102  01 Far From Me.flac
     6:51.29       72568652 B   ---   --   ---xx   flac  0.5803  02 Althea.flac
     4:08.10       43770764 B   ---   --   ---xx   flac  0.5494  03 Feel Like A Stranger.flac
     4:05.35       43300364 B   ---   --   ---xx   flac  0.6474  04 Alabama Getaway.flac
     3:11.13       33723020 B   ---   --   ---xx   flac  0.6210  05 Don't Ease Me In.flac
     3:37.37       38365868 B   ---   --   ---xx   flac  0.5968  06 Easy To Love You.flac
     5:53.31       62342156 B   ---   --   ---xx   flac  0.6027  07 Lost Sailor.flac
     5:43.42       60604028 B   ---   --   ---xx   flac  0.6329  08 Saint Of Circumstance.flac
    37:15.57      394388416 B                            0.6040  (8 files)




More information about the bittorrent mailing list