[bittorrent] moe. Georgia Theatre Athens, Georgia 1/28/2017 (Schoeps CCM4V'S FOB)

Automated Mailer noreply-bt.e at etree.org
Sun Jan 29 09:22:43 UTC 2017


Band:           moe.
Torrent Name:   moe. Georgia Theatre Athens, Georgia 1/28/2017 (Schoeps CCM4V'S FOB)
Uploaded by:    zmanatl
DB Link:        
Details:        http://bt.etree.org/details.php?id=591079

Contact the seeder at http://db.etree.org/zmanatl

If the link to this show does not work, it was probably removed for
being non-trade-friendly.

Description / text file:
-------------------------
moe.
Georgia Theatre
Athens, Georgia
1/28/2017

Source: Schoeps CCM4V's>Sound Devices 722 (24/44)
FOB/DFC/KFC/ZFC/AARP Clamped To The Rail Of The Front Of The Balcony
DSP: Sound Devices 722>Sound Forge 10.0>CD Wave>flac(16)
ID3 Tagged In Foobar 2000
Recorded By: Z-Man
Seeded By: Z-Man

Disc I 1st Set

01 Sensory Deprivation Bank >
02 All Roads Lead To Home
03 Queen Of Everything
04 I Don't Wanna Be
05 Intro Jam By Al >
06 Opeum >
07 NYC
08 *McBain

Disc II 2nd Set 

01 Banter
02 Blue Jeans Pizza 
03 Banter
04 Happiest Days Of Our Lives >
05 Another Brick In The Wall Part II >
06 Lazarus

Disc III 2nd Set Con't 

01 Hi And Lo >
02 Don't Fuck With Flo >
03 Ricky Marten >
04 Meat
Encore:
05 Alnouncements
06 In Memory Of Elizabeth Reed

* With Lyle Lovett Tease

moe2017-01-28d01t01.flac:36513ee3b10b4c2a88bea01f0162fd2d
moe2017-01-28d01t02.flac:7a7a91019a1b732a60882533e77c58aa
moe2017-01-28d01t03.flac:4f6ae97b88fe41a0aa8ad392f7eca10b
moe2017-01-28d01t04.flac:af9a4cfbd9ac0324a1d6db0c518e704e
moe2017-01-28d01t05.flac:f20bbb11d240e4e8ed90a565bd95d11e
moe2017-01-28d01t06.flac:ba0aa82cab4f2ed4103a986ce2e0b2a9
moe2017-01-28d01t07.flac:66c69f3bfda14bf6876435705356c319
moe2017-01-28d01t08.flac:fbab747f0e6ce550d7414645280c8a09
moe2017-01-28d02t01.flac:26c9ac2ec304df2d604941879c4e42dd
moe2017-01-28d02t02.flac:aaa3d614ab8e82a6dde637686496cf90
moe2017-01-28d02t03.flac:3352601340e643a669057d9148367576
moe2017-01-28d02t04.flac:31e207d58b5af3fe26d869691188948a
moe2017-01-28d02t05.flac:45f49645c681374ac6af12278769614e
moe2017-01-28d02t06.flac:52cdcdcec3c91feb96d08537b6c9dd07
moe2017-01-28d03t01.flac:26c51b7feb651da2a070ad33a430d131
moe2017-01-28d03t02.flac:63796dc9b04e5719bcce331938de5134
moe2017-01-28d03t03.flac:3838035ed1668ef0b17516f48047d4c3
moe2017-01-28d03t04.flac:a9b8638d2b39eb746aeb435fabb056d8
moe2017-01-28d03t05.flac:056fc90f8760782a427488400709e2d6
moe2017-01-28d03t06.flac:57b256e5146de9d521b37a51249aa6a2

 length     expanded size    cdr  WAVE problems  fmt   ratio  filename
     7:08.38       75588620 B   ---   --   ---xx   flac  0.5781  moe2017-01-28d01t01.flac
     3:59.72       42328988 B   ---   --   ---xx   flac  0.5759  moe2017-01-28d01t02.flac
     7:36.28       80504300 B   ---   --   ---xx   flac  0.5636  moe2017-01-28d01t03.flac
     5:57.26       63035996 B   ---   --   ---xx   flac  0.5761  moe2017-01-28d01t04.flac
     2:27.31       26003756 B   ---   --   ---xx   flac  0.4055  moe2017-01-28d01t05.flac
    18:06.11      191596316 B   ---   --   ---xx   flac  0.5578  moe2017-01-28d01t06.flac
     6:42.02       70917548 B   ---   --   ---xx   flac  0.5520  moe2017-01-28d01t07.flac
    19:27.43      205959980 B   ---   --   ---xx   flac  0.5955  moe2017-01-28d01t08.flac
     0:51.58        9132860 B   ---   --   ---xx   flac  0.4596  moe2017-01-28d02t01.flac
     8:17.63       87819020 B   ---   --   ---xx   flac  0.5825  moe2017-01-28d02t02.flac
     2:18.02       24347948 B   ---   --   ---xx   flac  0.4400  moe2017-01-28d02t03.flac
     1:23.65       14794124 B   ---   --   ---xx   flac  0.5345  moe2017-01-28d02t04.flac
     3:58.13       42013820 B   ---   --   ---xx   flac  0.5828  moe2017-01-28d02t05.flac
    12:24.58      131378060 B   ---   --   ---xx   flac  0.5646  moe2017-01-28d02t06.flac
     8:47.48       93075740 B   ---   --   ---xx   flac  0.5562  moe2017-01-28d03t01.flac
    14:17.41      151271276 B   ---   --   ---xx   flac  0.5987  moe2017-01-28d03t02.flac
     8:27.43       89535980 B   ---   --   ---xx   flac  0.6097  moe2017-01-28d03t03.flac
    18:51.00      199508444 B   ---   --   ---xx   flac  0.6077  moe2017-01-28d03t04.flac
     3:17.55       34880204 B   ---   --   ---xx   flac  0.4388  moe2017-01-28d03t05.flac
    19:30.01      206390396 B   ---   --   ---xx   flac  0.5866  moe2017-01-28d03t06.flac
   173:51.23     1840083376 B                            0.5740  (20 files)









More information about the bittorrent mailing list