[bittorrent] gd1983-04-10s2.nak300.schley.137677.flac1644

Automated Mailer noreply-bt.e at etree.org
Sat Jan 28 21:19:45 UTC 2017


Band:           Grateful Dead
Torrent Name:   gd1983-04-10s2.nak300.schley.137677.flac1644
Uploaded by:    nfagdtrfb
DB Link:        
Details:        http://bt.etree.org/details.php?id=591068

Contact the seeder at http://db.etree.org/nfagdtrfb

If the link to this show does not work, it was probably removed for
being non-trade-friendly.

Description / text file:
-------------------------
GRATEFUL DEAD
West Virginia University Coliseum
Morgantown WV
04-10-1983
Second Set

16bit/44.1kHz file-set

s2t01 Touch of Grey >
s2t02 Women are Smarter
s2t03 Uncle John's Band >
s2t04 Playin' in the Band >
s2t05 Drums >
s2t06 Space >
s2t07 The Wheel >
s2t08 Playin' in the Band Reprise >
s2t09 China Doll >
s2t10 Sugar Magnolia
s2t11 Encore: U.S. Blues

AUD: Nakamichi CM300/CP4 shotguns > Sony TC-D5M > Maxell MX-90, 
FOB recording by Brian Schley.

Transfer: MAC > Nakamichi CR-5A > Edirol FA-66 > Wavelab 2448 > 
CD-Wave (24bit output) > R8Brain SRC > TLH > FLAC 1644 tagged. 
Transferred by Andrew F. 01/2017

Note: 1st Set MAC taped over :( ID-130279 patch Drums 2:11 > 6:47. 
Thanks Jon Pasternak & Charlie McGuth for organizing this project!

    length     expanded size    cdr  WAVE problems  fmt   ratio  filename
     6:09.49       65206892 B   ---   --   ---xx   flac  0.6653  gd1983-04-10s2t01.flac
     6:06.03       64569500 B   ---   --   ---xx   flac  0.6568  gd1983-04-10s2t02.flac
     8:46.52       92908748 B   ---   --   ---xx   flac  0.6390  gd1983-04-10s2t03.flac
    10:10.48      107716940 B   ---   --   ---xx   flac  0.6352  gd1983-04-10s2t04.flac
     7:27.45       78956684 B   ---   --   ---xx   flac  0.6030  gd1983-04-10s2t05.flac
     5:25.48       57442940 B   ---   --   ---xx   flac  0.4772  gd1983-04-10s2t06.flac
     5:41.35       60234764 B   ---   --   ---xx   flac  0.6149  gd1983-04-10s2t07.flac
     4:28.73       47446940 B   ---   --   ---xx   flac  0.5985  gd1983-04-10s2t08.flac
     4:56.17       52254428 B   ---   --   ---xx   flac  0.5575  gd1983-04-10s2t09.flac
     8:18.53       87971900 B   ---   --   ---xx   flac  0.6415  gd1983-04-10s2t10.flac
     5:09.61       54651116 B   ---   --   ---xx   flac  0.6278  gd1983-04-10s2t11.flac
    72:41.34      769360852 B                            0.6160  (11 files)

No errors occured.




More information about the bittorrent mailing list