[bittorrent] gd1983-04-10s2.nak300.schley.137676.flac2448

Automated Mailer noreply-bt.e at etree.org
Sat Jan 28 21:19:42 UTC 2017


Band:           Grateful Dead
Torrent Name:   gd1983-04-10s2.nak300.schley.137676.flac2448
Uploaded by:    nfagdtrfb
DB Link:        
Details:        http://bt.etree.org/details.php?id=591067

Contact the seeder at http://db.etree.org/nfagdtrfb

If the link to this show does not work, it was probably removed for
being non-trade-friendly.

Description / text file:
-------------------------
GRATEFUL DEAD
West Virginia University Coliseum
Morgantown WV
04-10-1983
Second Set

24bit/48kHz file-set

s2t01 Touch of Grey >
s2t02 Women are Smarter
s2t03 Uncle John's Band >
s2t04 Playin' in the Band >
s2t05 Drums >
s2t06 Space >
s2t07 The Wheel >
s2t08 Playin' in the Band Reprise >
s2t09 China Doll >
s2t10 Sugar Magnolia
s2t11 Encore: U.S. Blues

AUD: Nakamichi CM300/CP4 shotguns > Sony TC-D5M > Maxell MX-90, 
FOB recording by Brian Schley.

Transfer: MAC > Nakamichi CR-5A > Edirol FA-66 > Wavelab 2448 > 
CD-Wave (24bit output) > TLH > FLAC 2448 tagged. Transferred by 
Andrew F. 01/2017

Note: 1st Set MAC taped over :( ID-130279 patch Drums 2:11 > 6:47. 
Thanks Jon Pasternak & Charlie McGuth for organizing this project!

    length     expanded size    cdr  WAVE problems  fmt   ratio  filename
     6:09.653     106460204 B   cxx   --   ---xx   flac  0.7636  gd1983-04-10s2t01.flac
     6:06.040     105419564 B   cxx   --   ---xx   flac  0.7588  gd1983-04-10s2t02.flac
     8:46.693     151687724 B   cxx   --   ---xx   flac  0.7485  gd1983-04-10s2t03.flac
    10:10.640     175864364 B   cxx   --   ---xx   flac  0.7462  gd1983-04-10s2t04.flac
     7:27.600     128908844 B   cxx   --   ---xx   flac  0.7249  gd1983-04-10s2t05.flac
     5:25.640      93784364 B   cxx   --   ---xx   flac  0.6483  gd1983-04-10s2t06.flac
     5:41.467      98342444 B   cxx   --   ---xx   flac  0.7331  gd1983-04-10s2t07.flac
     4:28.973      77464364 B   cxx   --   ---xx   flac  0.7232  gd1983-04-10s2t08.flac
     4:56.227      85313324 B   cxx   --   ---xx   flac  0.6979  gd1983-04-10s2t09.flac
     8:18.707     143627564 B   cxx   --   ---xx   flac  0.7498  gd1983-04-10s2t10.flac
     5:09.809      89225078 B   cxx   --   ---xx   flac  0.7406  gd1983-04-10s2t11.flac
    72:41.449    1256097838 B                            0.7338  (11 files)

No errors occured.




More information about the bittorrent mailing list