[bittorrent] gd1974-10-16.set2.aud.smith.sirmick.137663.sbeok.flac16 e

Automated Mailer noreply-bt.e at etree.org
Sat Jan 28 08:49:46 UTC 2017


Band:           Grateful Dead
Torrent Name:   gd1974-10-16.set2.aud.smith.sirmick.137663.sbeok.flac16 e
Uploaded by:     SIRMick
DB Link:        
Details:        http://bt.etree.org/details.php?id=591062

Contact the seeder at http://db.etree.org/ SIRMick

If the link to this show does not work, it was probably removed for
being non-trade-friendly.

Description / text file:
-------------------------
Grateful Dead
Winterland Arena
San Francisco, CA
1974-10-16

Source: Master Audience Reel > Reel
        From The Debbie Stash 
Transfer: Reel > Technics RS 1506 > Apogee Mini Me > Mini Dac > Wavelab 5 > wav 24/96
Lineage: wav 24/96 > iZotope RX5 Advanced > iZotope Ozone 5 > iZotope RX5 Advanced > wav 16/44.1 > CD Wave > TLH > flac16



Set II

01   Seastones >
02   Jam 
03   Space >
04   Wharf Rat >
05   Eyes Of The World
06   Big River
07   Ship Of Fools
08   Truckin' >
09   Goin' Down The Road Feeling Bad >
10   Uncle John's Band > 
11   Johnny B. Goode
12   encore break/Happy Birthday Bobby/tuning

encore

13   U.S. Blues



Notes:

The following patches have been put in

- The last 1:08 of Jam
- The first 25.8 seconds of Space
- Wharf Rat 4:28 - 5:49
- The first 4:23 of Eyes Of The World
- The last 48 seconds of GDTRFB
- The first minute of UJB
- The whole of U.S. Blues


The patch source used is the MOTB release shnind 107036.




Thanks to Matt Smith for providing this source and doing the transfer.

Thanks to Charlie Miller for getting this to me and thanks to Joe B. Jones for advice on pitch correction.



edited and mastered
SIRMick
January 2017


shntool output:

    length     expanded size    cdr  WAVE problems  fmt   ratio  filename
    23:15.68      246237980 B   ---   --   ---xx   flac  0.4864  gd1974-10-16s2t01.flac
    23:29.24      248604092 B   ---   --   ---xx   flac  0.5069  gd1974-10-16s2t02.flac
     2:07.02       22407548 B   ---   --   ---xx   flac  0.4960  gd1974-10-16s2t03.flac
    16:42.29      176821052 B   ---   --   ---xx   flac  0.4894  gd1974-10-16s2t04.flac
    16:13.54      171764252 B   ---   --   ---xx   flac  0.5127  gd1974-10-16s2t05.flac
     5:12.63       55185020 B   ---   --   ---xx   flac  0.5256  gd1974-10-16s2t06.flac
     7:10.62       75997868 B   ---   --   ---xx   flac  0.5001  gd1974-10-16s2t07.flac
     8:45.48       92722940 B   ---   --   ---xx   flac  0.5428  gd1974-10-16s2t08.flac
     8:13.09       86986412 B   ---   --   ---xx   flac  0.5265  gd1974-10-16s2t09.flac
     7:52.63       83409020 B   ---   --   ---xx   flac  0.5166  gd1974-10-16s2t10.flac
     4:06.33       43472060 B   ---   --   ---xx   flac  0.5429  gd1974-10-16s2t11.flac
     6:42.71       71079836 B   ---   --   ---xx   flac  0.5074  gd1974-10-16s2t12.flac
     5:33.09       58762412 B   ---   --   ---xx   flac  0.5286  gd1974-10-16s2t13.flac
   135:26.10     1433450492 B                            0.5082  (13 files)






More information about the bittorrent mailing list