[bittorrent] gd1974-10-16.set2.aud.smith.sirmick.137664.sbeok.flac24 e

Automated Mailer noreply-bt.e at etree.org
Sat Jan 28 08:44:47 UTC 2017


Band:           Grateful Dead
Torrent Name:   gd1974-10-16.set2.aud.smith.sirmick.137664.sbeok.flac24 e
Uploaded by:     SIRMick
DB Link:        
Details:        http://bt.etree.org/details.php?id=591061

Contact the seeder at http://db.etree.org/ SIRMick

If the link to this show does not work, it was probably removed for
being non-trade-friendly.

Description / text file:
-------------------------
Grateful Dead
Pauley Pavilion
Los Angeles, CA
12/30/1978


Source: Audience recording > Neumann KM 88's > Nagra > reel master
        taped by Sandy Troy     
Transfer: reel master > Technics RS1506 > Apogee Mini Me > Apogee Mini Dac> wav 24/96)
          transferred by Matt Smith
Lineage: wav 24/96 > Adobe Audition 3.0.01 > iZotope RX4 Advanced > iZotope Ozone 5 Advanced >
         CD Wave > TLH > Flac24



Set I

01   Tuning
02   Jack Straw
03   They Love Each Other
04   Mama Tried >
05   Mexicali Blues
06   Loser
07   Looks Like Rain
08   Stagger Lee
09   Passenger
10   Tennessee Jed
11   New Minglewood Blues
12   Sugaree
13   The Promised Land


Set II

01   Tuning
02   I Need A Miracle >
03   Bertha >
04   Good Lovin'
05   Scarlet Begonias >
06   Fire On The Mountain
07   Playing In The Band >
08   Shakedown Street >
09   Drums >
10   Ollin Arrageed * >
11   Space > 
12   Saint Stephen > 
13   Not Fade Away > 
14   Goin' Down The Road Feeling Bad > 
15   Around And Around
16   encore break

encore

17   One More Saturday Night **



Comments:

*  with Hamza el-Din - oud, vocals
** Lee Oskar - harmonica

Notes:

- Reel change at the end of "Fire On The Mountain" patched with a recording by Rheinhart Holwein


Thanks to Sandy Troy for taping and Matt Smith for transferring this outstanding recording
and a tip of the hat to Charlie Miller for sending it to me.


edited and mastered
SIRMick
January 2017


shntool output:

    length     expanded size    cdr  WAVE problems  fmt   ratio  filename
     1:01.053      35166764 B   cxx   --   ---xx   flac  0.6929  gd1978-12-30s1t01.flac
     6:38.853     229739564 B   cxx   --   ---xx   flac  0.7072  gd1978-12-30s1t02.flac
     8:21.880     289082924 B   cxx   --   ---xx   flac  0.6992  gd1978-12-30s1t03.flac
     2:25.280      83681324 B   cxx   --   ---xx   flac  0.7118  gd1978-12-30s1t04.flac
     5:40.853     196331564 B   cxx   --   ---xx   flac  0.7059  gd1978-12-30s1t05.flac
     8:33.027     295503404 B   cxx   --   ---xx   flac  0.7003  gd1978-12-30s1t06.flac
     9:39.173     333603884 B   cxx   --   ---xx   flac  0.6931  gd1978-12-30s1t07.flac
     7:32.773     260797484 B   cxx   --   ---xx   flac  0.6984  gd1978-12-30s1t08.flac
     7:35.933     262617644 B   cxx   --   ---xx   flac  0.7044  gd1978-12-30s1t09.flac
    11:27.360     395919404 B   cxx   --   ---xx   flac  0.7009  gd1978-12-30s1t10.flac
     7:03.067     243686444 B   cxx   --   ---xx   flac  0.7034  gd1978-12-30s1t11.flac
    10:13.160     353180204 B   cxx   --   ---xx   flac  0.7010  gd1978-12-30s1t12.flac
     4:40.787     161733164 B   cxx   --   ---xx   flac  0.7183  gd1978-12-30s1t13.flac
     1:41.587      58513964 B   cxx   --   ---xx   flac  0.6688  gd1978-12-30s2t01.flac
     4:12.107     145213484 B   cxx   --   ---xx   flac  0.7063  gd1978-12-30s2t02.flac
     6:31.853     225707564 B   cxx   --   ---xx   flac  0.7070  gd1978-12-30s2t03.flac
     9:29.907     328266284 B   cxx   --   ---xx   flac  0.7012  gd1978-12-30s2t04.flac
     9:39.240     333642284 B   cxx   --   ---xx   flac  0.7013  gd1978-12-30s2t05.flac
    10:28.387     361950764 B   cxx   --   ---xx   flac  0.6991  gd1978-12-30s2t06.flac
     7:32.573     260682284 B   cxx   --   ---xx   flac  0.6944  gd1978-12-30s2t07.flac
     8:55.627     308521004 B   cxx   --   ---xx   flac  0.7030  gd1978-12-30s2t08.flac
    10:44.707     371351084 B   cxx   --   ---xx   flac  0.6934  gd1978-12-30s2t09.flac
    14:26.493     499100204 B   cxx   --   ---xx   flac  0.6731  gd1978-12-30s2t10.flac
     1:47.240      61770284 B   cxx   --   ---xx   flac  0.6787  gd1978-12-30s2t11.flac
     7:48.147     269652524 B   cxx   --   ---xx   flac  0.6959  gd1978-12-30s2t12.flac
     7:13.213     249530924 B   cxx   --   ---xx   flac  0.7010  gd1978-12-30s2t13.flac
     6:23.307     220784684 B   cxx   --   ---xx   flac  0.7001  gd1978-12-30s2t14.flac
     9:13.813     318996524 B   cxx   --   ---xx   flac  0.7063  gd1978-12-30s2t15.flac
     1:30.587      52177964 B   cxx   --   ---xx   flac  0.6718  gd1978-12-30s2t16.flac
     4:41.587     162193964 B   cxx   --   ---xx   flac  0.7156  gd1978-12-30s2t17.flac
   213:13.573    7369099560 B                            0.6989  (30 files)






More information about the bittorrent mailing list