[bittorrent] gd1976-10-01.137657.mtx.dusborne.flac16

Automated Mailer noreply-bt.e at etree.org
Thu Jan 26 23:46:05 UTC 2017


Band:           Grateful Dead
Torrent Name:   gd1976-10-01.137657.mtx.dusborne.flac16
Uploaded by:    greendude
DB Link:        
Details:        http://bt.etree.org/details.php?id=591053

Contact the seeder at http://db.etree.org/greendude

If the link to this show does not work, it was probably removed for
being non-trade-friendly.

Description / text file:
-------------------------
Grateful Dead 
October 1, 1976
Market Square Arena 
Indianapolis, IN

2 Source Matrix

Soundboard (shnid:112800)
----------------------------------------------------------------------------
gd76-10-01.112800.sbd.miller.t-flac16

Recording Info:
SBD -> Master Reel -> Dat -> CD

Transfer Info:
CD -> Samplitude Professional v11.2 -> FLAC
(2 Discs Audio / 2 Discs FLAC)

All Transfers and Mastering By Charlie Miller
charliemiller87 at earthlink.net
April 9, 2011

Patch Info:
(FOB) Sony ECM-33p -> Cassette Master -> FLAC (shnid=84358) supplies:
Franklin's Tower (0:28 - 0:53)
The Wheel (2:36 - 3:45)
Ship Of Fools (2:54 - 3:23)

Notes:
-- Disc change is seamless
-- Thanks to David Gans for lending me his discs
-- Dozens of hours went into making this recording listenable

Audience (shnid:118467)
---------------------------------------------------------------------------------
gd76-10-01.118467.aud.unknown.flac2496

SRC: Unknown AUD (likely FOB)
Lineage: Nakamichi DR-1 > Tascam HD-P2 > 24 bit/96 khz WAV > FLAC
Editing: a few minutes of crowd noise between OMSN and the US Blues encore eliminated, crowd noise from end of OMNS cross-faded into first few notes of encore tuning.

Notes: Excellent quality AUD, likely FOB.  Tape flips between It's All Over Now and Scarlet Begonias and between Samson and Help on the Way.

Thanks to my anonymous source for the source cassettes.
-------------------------------------------------------------------------------------------
---Thank you Charlie Miller for your work on the SBD.
---Thank you David Gans for the SBD discs.
---Thank you to the mystery Heads involved in sharing the lovely audience recording.
---Thank you Germain for your advice, encouragement, guidance and seeding.

Matrix by dusborne

01-17-2017
------------------------------------------------------------------------------

Set 1
101 - gd76-10-01s1t01 - Tuning
102 - gd76-10-01s1t02 - Bertha
103 - gd76-10-01s1t03 - Mama Tried
104 - gd76-10-01s1t04 - Deal
105 - gd76-10-01s1t05 - Cassidy
106 - gd76-10-01s1t06 - Friend of the Devil
107 - gd76-10-01s1t07 - Big River
108 - gd76-10-01s1t08 - Brown Eyed Women
109 - gd76-10-01s1t09 - It's All Over Now
110 - gd76-10-01s1t10 - Scarlet Begonias
111 - gd76-10-01s1t11 - Promised Land

Set 2
201 - gd76-10-01s2t01 - Tuning
202 - gd76-10-01s2t02 - Might as Well
203 - gd76-10-01s2t03 - Samson & Delilah
204 - gd76-10-01s2t04 - Help on the Way ->
205 - gd76-10-01s2t05 - Slipknot! ->
206 - gd76-10-01s2t06 - Franklin's Tower
207 - gd76-10-01s2t07 - Dancin' in the Street ->
208 - gd76-10-01s2t08 - Drums ->
209 - gd76-10-01s2t09 - The Wheel ->
210 - gd76-10-01s2t10 - Ship Of Fools ->
211 - gd76-10-01s2t11 - Dancin' in the Street ->
212 - gd76-10-01s2t12 - Goin' Down the Road Feeling Bad ->
213 - gd76-10-01s2t13 - One More Saturday Night

Encore
214 - gd76-10-01s2t14 - U.S. Blues
-------------------------------------------------------------------------------------------------
Tagging notes:
Show information is embedded within the header of each flac file. 
It will display on any player capable of directly playing flac 
files. If converted to wav during processing, all tags will be 
stripped, however audio data will remain unaffected. If you must 
transcode to a lossy format, do so directly Flac > Lossy.
Use ffp to validate audio integrity.
Md5 values will change if tagging is altered.

Dave Usborne 01-17-2017
--------------------------------------------------------------------------------------------------
length     expanded size    cdr  WAVE problems  fmt   ratio  filename
     0:15.40        2740124 B   ---   --   ---xx   flac  0.6573  gd76-10-01s1t01.flac
     5:34.06       58931756 B   ---   --   ---xx   flac  0.6657  gd76-10-01s1t02.flac
     3:55.43       41555180 B   ---   --   ---xx   flac  0.6738  gd76-10-01s1t03.flac
     4:59.56       52875356 B   ---   --   ---xx   flac  0.6696  gd76-10-01s1t04.flac
     4:57.63       52539020 B   ---   --   ---xx   flac  0.6740  gd76-10-01s1t05.flac
     8:57.25       94785644 B   ---   --   ---xx   flac  0.6722  gd76-10-01s1t06.flac
     7:30.59       79518812 B   ---   --   ---xx   flac  0.6860  gd76-10-01s1t07.flac
     5:58.61       63294716 B   ---   --   ---xx   flac  0.6753  gd76-10-01s1t08.flac
     7:46.33       82280060 B   ---   --   ---xx   flac  0.6486  gd76-10-01s1t09.flac
    12:22.68      131048780 B   ---   --   ---xx   flac  0.6512  gd76-10-01s1t10.flac
     4:18.29       45579452 B   ---   --   ---xx   flac  0.6433  gd76-10-01s1t11.flac
     0:16.51        2942396 B   ---   --   ---xx   flac  0.6258  gd76-10-01s2t01.flac
     6:16.15       66361724 B   ---   --   ---xx   flac  0.6637  gd76-10-01s2t02.flac
     8:15.26       87379196 B   ---   --   ---xx   flac  0.6653  gd76-10-01s2t03.flac
     5:19.72       56440988 B   ---   --   ---xx   flac  0.6375  gd76-10-01s2t04.flac
    12:27.63      131919020 B   ---   --   ---xx   flac  0.6406  gd76-10-01s2t05.flac
    12:05.57      128024108 B   ---   --   ---xx   flac  0.6713  gd76-10-01s2t06.flac
     7:44.29       81917852 B   ---   --   ---xx   flac  0.6678  gd76-10-01s2t07.flac
     2:35.58       27478460 B   ---   --   ---xx   flac  0.6235  gd76-10-01s2t08.flac
     8:31.63       90288620 B   ---   --   ---xx   flac  0.6113  gd76-10-01s2t09.flac
     7:48.67       82712828 B   ---   --   ---xx   flac  0.6093  gd76-10-01s2t10.flac
     3:35.27       37989548 B   ---   --   ---xx   flac  0.6163  gd76-10-01s2t11.flac
     7:56.04       83975852 B   ---   --   ---xx   flac  0.6161  gd76-10-01s2t12.flac
     5:59.15       63362924 B   ---   --   ---xx   flac  0.6439  gd76-10-01s2t13.flac
     5:29.26       58096796 B   ---   --   ---xx   flac  0.6268  gd76-10-01s2t14.flac
   161:00.06     1704039212 B                            0.6509  (25 files)



More information about the bittorrent mailing list