[bittorrent] The Radiators with Earl King 1978-04-08 New Orleans, LA SBD

Automated Mailer noreply-bt.e at etree.org
Thu Jan 26 21:42:40 UTC 2017


Band:           Radiators
Torrent Name:   The Radiators with Earl King 1978-04-08 New Orleans, LA SBD
Uploaded by:    furnab2lax
DB Link:        
Details:        http://bt.etree.org/details.php?id=591051

Contact the seeder at http://db.etree.org/furnab2lax

If the link to this show does not work, it was probably removed for
being non-trade-friendly.

Description / text file:
-------------------------
The Radiators with Earl King
April 8, 1978
New Orleans Jazz And Heritage Festival,
New Orleans, LA

Soundboard

Lineage: Trade CD > extracted with dBpoweramp CD Ripper > 
flac level 8 and checksums with traderslittlehelper >
tagged with mp3tag
2017-01-26 by arfarf

01 Suck The Head Pt.1 ->
02 Suck The Head Pt.2 -> Earl King Intro
03 Let The Good Times Roll//
04 Night Time Is The Right Time
05 Trick Bag
06 Always A First Time
07 //Baby Sittin'
08 Make A Better World


    length     expanded size    cdr  WAVE problems  fmt   ratio  filename
     6:20.63       67180220 B   ---   --   ---xx   flac  0.6021  radiators1978-04-08t01.flac
     3:04.19       32502332 B   ---   --   ---xx   flac  0.5601  radiators1978-04-08t02.flac
     4:26.00       46922444 B   ---   --   ---xx   flac  0.5969  radiators1978-04-08t03.flac
     8:38.10       91398764 B   ---   --   ---xx   flac  0.5730  radiators1978-04-08t04.flac
     4:12.39       44544572 B   ---   --   ---xx   flac  0.5917  radiators1978-04-08t05.flac
     6:38.11       70233116 B   ---   --   ---xx   flac  0.6161  radiators1978-04-08t06.flac
     5:30.08       58230860 B   ---   --   ---xx   flac  0.5815  radiators1978-04-08t07.flac
     4:19.39       45779372 B   ---   --   ---xx   flac  0.5977  radiators1978-04-08t08.flac
    43:09.39      456791680 B                            0.5908  (8 files)



More information about the bittorrent mailing list