[bittorrent] gd1979-xx-xx.137649.sbd.miller.flac24

Automated Mailer noreply-bt.e at etree.org
Mon Jan 23 23:40:45 UTC 2017


Band:           Grateful Dead
Torrent Name:   gd1979-xx-xx.137649.sbd.miller.flac24
Uploaded by:    greendude
DB Link:        
Details:        http://bt.etree.org/details.php?id=591007

Contact the seeder at http://db.etree.org/greendude

If the link to this show does not work, it was probably removed for
being non-trade-friendly.

Description / text file:
-------------------------
Grateful Dead - Go To Heaven
Betty's Rough Mix - November 10, 1979

Recording Info:
SBD > Master Reels (24-track) > Betty's Cassette (Maxell UD-XLII)

Transfer Info:
Cassette (Nakamichi CR-7A) > Tascam DA-3000 (DSF 1-bit/5.8 MHz) >
KORG AudioGate 4 > Samplitude Pro X3 Suite > FLAC/24
(1 Disc FLAC)

All Transfers and Mastering By Charlie Miller
charliemiller87 at earthlink.net
January 22, 2017

Notes:
-- This is a rough mix-down Betty made of alternate takes

Track List:
01 - Far From Me
02 - Althea
03 - Feel Like A Stranger
04 - Alabama Getaway
05 - Don't Ease Me In
06 - Easy To Love You
07 - Lost Sailor
08 - Saint Of Circumstance


SHNTOOL OUTPUT:
    length     expanded size    cdr  WAVE problems  fmt   ratio  filename
     3:45.136     129678278 B   cxx   --   ---xx   flac  0.5906  01 Far From Me.flac
     6:51.385     236957648 B   cxx   --   ---xx   flac  0.5775  02 Althea.flac
     4:08.133     142924538 B   cxx   --   ---xx   flac  0.5603  03 Feel Like A Stranger.flac
     4:05.471     141391598 B   cxx   --   ---xx   flac  0.6072  04 Alabama Getaway.flac
     3:11.180     110119736 B   cxx   --   ---xx   flac  0.5968  05 Don't Ease Me In.flac
     3:37.491     125274950 B   cxx   --   ---xx   flac  0.5854  06 Easy To Love You.flac
     5:53.417     203568392 B   cxx   --   ---xx   flac  0.5982  07 Lost Sailor.flac
     5:43.547     197882948 B   cxx   --   ---xx   flac  0.6045  08 Saint Of Circumstance.flac
    37:15.760    1287798088 B                            0.5900  (8 files)




More information about the bittorrent mailing list