[bittorrent] gd1977-12-29.sen421.miller.sirmick.137650.sbeok.flac16 e

Automated Mailer noreply-bt.e at etree.org
Mon Jan 23 11:39:05 UTC 2017


Band:           Grateful Dead
Torrent Name:   gd1977-12-29.sen421.miller.sirmick.137650.sbeok.flac16 e
Uploaded by:     SIRMick
DB Link:        
Details:        http://bt.etree.org/details.php?id=590998

Contact the seeder at http://db.etree.org/ SIRMick

If the link to this show does not work, it was probably removed for
being non-trade-friendly.

Description / text file:
-------------------------
Grateful Dead 
Winterland Arena
San Francisco, CA 
12/29/1977


Source: Audience recording (Sennheiser 421s) > ??? > cdr > eac > wav 16/44.1
        Provided by Anon   
Lineage: wav 16/44.1 > Adobe Audition 3.0.1 > iZotope RX4 Advanced > iZotope Ozone 5 Advanced > CD Wav TLH > Flac16


Set I

01   "Our new name is going to be 'The Just Exactly Perfect Band'"
02   Jack Straw
03   They Love Each Other
04   Mama Tried
05   Loser
06   Looks Like Rain
07   Tennessee Jed
08   crowd/tuning
09   New Minglewood Blues
10   Sugaree
11   Promised Land


Set II

01   tuning > Bertha >
02   Good Lovin'
03   It Must Have Been the Roses
04   Sunrise
05   crowd/tuning
06   Playin' in the Band >
07   China Cat Sunflower >
08   I Know You Rider >
09   China Doll >
10   Jam >
11   Drums >
12   Not Fade Away >
13   Playin' in the Band

encore:

14   Terrapin Station
15   Johnny B. Goode



Notes:

patches

   source: n-th gen maxell cassette (shnid 93234)

- "Terrapin Station" last 31 seconds (none of which is music)
- "Johnny B. Goode" left channel first 2.5 seconds
 
- This is a very low gen. copy of the source seeded in shnid 108432



Thanks to Charle Miller for sending this to me.


Thanks to Joe B. Jones for advice on pitch correction.


edited and mastered
SIRMick
January 2017


shntool output:

    length     expanded size    cdr  WAVE problems  fmt   ratio  filename
     0:41.56        7364156 B   ---   --   ---xx   flac  0.5031  gd1977-12-29s1t01.flac
     5:51.50       62034044 B   ---   --   ---xx   flac  0.5777  gd1977-12-29s1t02.flac
     7:23.10       78168764 B   ---   --   ---xx   flac  0.5709  gd1977-12-29s1t03.flac
     3:36.51       38222396 B   ---   --   ---xx   flac  0.5822  gd1977-12-29s1t04.flac
     7:49.24       82788092 B   ---   --   ---xx   flac  0.5512  gd1977-12-29s1t05.flac
     8:09.55       86389004 B   ---   --   ---xx   flac  0.5332  gd1977-12-29s1t06.flac
     8:20.21       88249436 B   ---   --   ---xx   flac  0.5722  gd1977-12-29s1t07.flac
     1:28.59       15662012 B   ---   --   ---xx   flac  0.4516  gd1977-12-29s1t08.flac
     5:27.58       57819260 B   ---   --   ---xx   flac  0.5880  gd1977-12-29s1t09.flac
    13:58.68      147983180 B   ---   --   ---xx   flac  0.5361  gd1977-12-29s1t10.flac
     4:27.51       47218796 B   ---   --   ---xx   flac  0.6092  gd1977-12-29s1t11.flac
     7:00.68       74247980 B   ---   --   ---xx   flac  0.6048  gd1977-12-29s2t01.flac
     6:17.61       66646316 B   ---   --   ---xx   flac  0.6149  gd1977-12-29s2t02.flac
     7:22.36       78053516 B   ---   --   ---xx   flac  0.5171  gd1977-12-29s2t03.flac
     3:44.15       39548924 B   ---   --   ---xx   flac  0.5358  gd1977-12-29s2t04.flac
     4:38.41       49135676 B   ---   --   ---xx   flac  0.4527  gd1977-12-29s2t05.flac
    16:18.16      172556876 B   ---   --   ---xx   flac  0.5416  gd1977-12-29s2t06.flac
     5:36.42       59369228 B   ---   --   ---xx   flac  0.6071  gd1977-12-29s2t07.flac
     5:27.09       57704012 B   ---   --   ---xx   flac  0.5925  gd1977-12-29s2t08.flac
     7:23.07       78161708 B   ---   --   ---xx   flac  0.5301  gd1977-12-29s2t09.flac
     1:44.20       18392684 B   ---   --   ---xx   flac  0.5436  gd1977-12-29s2t10.flac
     3:57.65       41959724 B   ---   --   ---xx   flac  0.5252  gd1977-12-29s2t11.flac
     8:41.06       91918556 B   ---   --   ---xx   flac  0.5897  gd1977-12-29s2t12.flac
     4:44.13       50128220 B   ---   --   ---xx   flac  0.5517  gd1977-12-29s2t13.flac
    11:10.59      118326812 B   ---   --   ---xx   flac  0.5542  gd1977-12-29s2t14.flac
     4:36.68       48846380 B   ---   --   ---xx   flac  0.6201  gd1977-12-29s2t15.flac
   165:59.54     1756895752 B                            0.5591  (26 files)






More information about the bittorrent mailing list