[bittorrent] Front Country Buckhead Theatre Atlanta, Georgia 1/21/2017 (Schoeps CCM4V'S FOB)

Automated Mailer noreply-bt.e at etree.org
Mon Jan 23 02:09:13 UTC 2017


Band:           Other
Torrent Name:   Front Country Buckhead Theatre Atlanta, Georgia 1/21/2017 (Schoeps CCM4V'S FOB)
Uploaded by:    zmanatl
DB Link:        
Details:        http://bt.etree.org/details.php?id=590992

Contact the seeder at http://db.etree.org/zmanatl

If the link to this show does not work, it was probably removed for
being non-trade-friendly.

Description / text file:
-------------------------
Front Country
Buckhead Theatre
Atlanta, Georgia
1/21/2017

Source: Schoeps CCM4V's>Lunatec V2>Benchmark AD2K>
Sound Devices 722 (24/44)
FOB/DLFC/KFC/ZFC/AARP Clamped To The Rail Just In Friont Of Soundboard
DSP: Sound Devices 722>Sound Forge 10.0>CD Wave>flac(16)
ID3 Tagged In Foobar 2000
Recorded By: Z-Man
Seeded By: Z-Man

Disc I 1st Set

01 Lonesome Town
02 ?
03 Sake Of The Sound
04 ?
05 Rock Salt
06 Millionaire
07 Pupville
08 Band Introductions
09 Boys Of Summer
10 Gold Rush Goddess

Melody Walker - Vocals, Acoustic Guitar, BanJo, And Percussion
Jacob Groopman - Acoustic Guitar And Vocals
Adam Roszkiewicz - Mandolin And Vocals
Leif Karlstrom - Fiddle
Jeremy Darrow - Bass

front2017-01-21d01t01.flac:12efb194a0660fc2416159ecfae540bd
front2017-01-21d01t02.flac:1560e42807aa420454c3a0f207d80bd5
front2017-01-21d01t03.flac:a61e35334583eac27dc7273419482170
front2017-01-21d01t04.flac:5733b41b4839a07d9427e8e483d93ab9
front2017-01-21d01t05.flac:d39b2ca890a13a44c044c5a07a2d5353
front2017-01-21d01t06.flac:5e9dcf566c05f7737449ca4ffb4282e6
front2017-01-21d01t07.flac:c8f802ecf742c9b92e56c87435bccc04
front2017-01-21d01t08.flac:fff4aa117545e6065610fd72b8203f00
front2017-01-21d01t09.flac:50ed45ca7de4373a862ffd9dbc0fbb9a
front2017-01-21d01t10.flac:42a33a30c1338212355ee57f1284e14c

 length     expanded size    cdr  WAVE problems  fmt   ratio  filename
     3:13.44       34148732 B   ---   --   ---xx   flac  0.4541  front2017-01-21d01t01.flac
     3:39.47       38742188 B   ---   --   ---xx   flac  0.4273  front2017-01-21d01t02.flac
     5:39.10       59823164 B   ---   --   ---xx   flac  0.4425  front2017-01-21d01t03.flac
     4:03.40       42959324 B   ---   --   ---xx   flac  0.4540  front2017-01-21d01t04.flac
     5:26.67       57664028 B   ---   --   ---xx   flac  0.4333  front2017-01-21d01t05.flac
     4:22.35       46299164 B   ---   --   ---xx   flac  0.4312  front2017-01-21d01t06.flac
     3:08.41       33259676 B   ---   --   ---xx   flac  0.4758  front2017-01-21d01t07.flac
     0:34.46        6105836 B   ---   --   ---xx   flac  0.4047  front2017-01-21d01t08.flac
     5:49.24       61620092 B   ---   --   ---xx   flac  0.4688  front2017-01-21d01t09.flac
    10:37.00      112366844 B   ---   --   ---xx   flac  0.5147  front2017-01-21d01t10.flac
    46:34.54      492989048 B                            0.4625  (10 files)


























More information about the bittorrent mailing list