[bittorrent] jgb1982-11-03.sbd.137644.flac1644

Automated Mailer noreply-bt.e at etree.org
Sun Jan 22 21:55:05 UTC 2017


Band:           Garcia
Torrent Name:   jgb1982-11-03.sbd.137644.flac1644
Uploaded by:    nfagdtrfb
DB Link:        
Details:        http://bt.etree.org/details.php?id=590981

Contact the seeder at http://db.etree.org/nfagdtrfb

If the link to this show does not work, it was probably removed for
being non-trade-friendly.

Description / text file:
-------------------------
JERRY GARCIA BAND
Riverboat President
New Orleans LA
11-03-1982

s1t01 /How Sweet It Is
s1t02 They Love Each Other
s1t03 Love in the Afternoon
s1t04 Let it Rock
s1t05 I Second /that Emotion
s1t06 /Tangled Up in Blue

s2t01 Sugaree
s2t02 The Harder They Come
s2t03 Don't Let Go
s2t04 The Night They Drove Old Dixie Down
s2t05 Run for the Roses
s2t06 Encore: Deal

Source: SBD > MSC > 3rd-Gen Cassettes.

Transfer: Maxell XLII-S > Nakamichi CR-5A > Edirol FA-66 > Wavelab 
2448 > R8Brain SRC > Wavelab (adding 16-bit patch) > CD-Wave > TLH > 
FLAC 1644 tagged. Transferred by Andrew F. 01/2017

Note: Start of HSII & TUIB slightly clipped. MSC tape-flip in ISTE, 
cross-faded at 3:50. Remixed ID-8178 patch THTC 8:32 > 8:45. Thanks 
to Craig L. and Jon Pasternak for sharing their old cassettes!

    length     expanded size    cdr  WAVE problems  fmt   ratio  filename
     9:54.47      104892188 B   ---   --   ---xx   flac  0.5533  jgb1982-11-03s1t01.flac
     9:27.16      100056476 B   ---   --   ---xx   flac  0.5420  jgb1982-11-03s1t02.flac
    12:33.06      132843356 B   ---   --   ---xx   flac  0.5396  jgb1982-11-03s1t03.flac
    10:11.29      107848652 B   ---   --   ---xx   flac  0.5551  jgb1982-11-03s1t04.flac
    10:00.62      105985868 B   ---   --   ---xx   flac  0.5684  jgb1982-11-03s1t05.flac
    12:59.27      137479148 B   ---   --   ---xx   flac  0.5631  jgb1982-11-03s1t06.flac
    13:04.33      138375260 B   ---   --   ---xx   flac  0.5621  jgb1982-11-03s2t01.flac
    13:07.66      138982076 B   ---   --   ---xx   flac  0.5457  jgb1982-11-03s2t02.flac
    14:33.64      154147772 B   ---   --   ---xx   flac  0.5529  jgb1982-11-03s2t03.flac
     9:37.14      101815772 B   ---   --   ---xx   flac  0.5560  jgb1982-11-03s2t04.flac
     5:23.24       57033692 B   ---   --   ---xx   flac  0.5637  jgb1982-11-03s2t05.flac
     8:02.59       85163612 B   ---   --   ---xx   flac  0.5600  jgb1982-11-03s2t06.flac
   128:55.72     1364623872 B                            0.5546  (12 files)

No errors occured.




More information about the bittorrent mailing list