[bittorrent] Greensky Bluegrass Buckhead Theatre Atlanta, Georgia 1/21/2017 (Schoeps CCM4V'S FOB)

Automated Mailer noreply-bt.e at etree.org
Sun Jan 22 16:57:00 UTC 2017


Band:           Greensky Bluegrass
Torrent Name:   Greensky Bluegrass Buckhead Theatre Atlanta, Georgia 1/21/2017 (Schoeps CCM4V'S FOB)
Uploaded by:    zmanatl
DB Link:        
Details:        http://bt.etree.org/details.php?id=590966

Contact the seeder at http://db.etree.org/zmanatl

If the link to this show does not work, it was probably removed for
being non-trade-friendly.

Description / text file:
-------------------------
Greensky Bluegrass
Buckhead Theatre
Atlanta, Georgia
1/21/2017

Source: Schoeps CCM4V's>Lunatec V2>Benchmark AD2K>
Sound Devices 722 (24/44)
FOB/DFC/KFC/ZFC/AARP Clamped To The Rail Of The Front Of The Balcony
DSP: Sound Devices 722>Sound Forge 10.0>CD Wave>flac(16)
ID3 Tagged In Foobar 2000
Recorded By: Z-Man
Seeded By: Z-Man

Disc I 1st Set

01 Greeting/Tuning
02 Dustbowl Overtures
03 Don't Let Your Deal Go Down >
04 Lose My Way
05 Ain't No Bread In The Breadbox
06 *Paul And Silas
07 *I'll Probably Kill You 
08 Demons
09 Less Than Supper >
10 Run Or Die

Disc II 2nd Set 

01 Greeting
02 Just To Lie >
03 The Four
04 #Burn Them >
05 #Reuben's Train >
06 #Burn Them
07 Banter/Tuning
08 Merely Avoiding
09 Wings For Wheels

Disc III 2nd Set Con't 

01 Jam/Anders Banter >
02 Broke Mountain Breakdown >
03 Walk Away >
04 Broke Mountain Breakdown
05 Windshield
Encore:
06 Jam/Paul Does Band Introductions >
07 Just Listening >
08 Living Over

* With Reverend Jeff Mosier On BanJo
# With Billy Strings On Guitar

Special Thanks To Tyler Woolson For Use Of His Hot Spot To Help Provide Last Night's Stream!

gsbg2017-01-21d01t01.flac:001de8512c7882793b8164dda54c1b17
gsbg2017-01-21d01t02.flac:eaf138a79d9a105bb062816614a61f44
gsbg2017-01-21d01t03.flac:0e1ae83ec864f62ea75f0da2a425530c
gsbg2017-01-21d01t04.flac:f2c70e79cb4c54c7a0350dae2e668d80
gsbg2017-01-21d01t05.flac:99dd4f9864b3fdf648026ca1ecf328b8
gsbg2017-01-21d01t06.flac:f6cbc6c00f99887ee332451623e09a54
gsbg2017-01-21d01t07.flac:c5292458ba2dd1a19ef29f74e1ea687c
gsbg2017-01-21d01t08.flac:03e797f7d2979114e3ac981ad15a6d8c
gsbg2017-01-21d01t09.flac:ce684609f04bca868e7dcaa98a901c08
gsbg2017-01-21d01t10.flac:baa9b1b217b8016aec8508d78e892332
gsbg2017-01-21d02t01.flac:0acfe8f016f24867260c5356f57a48c6
gsbg2017-01-21d02t02.flac:c31dcc61d3aee0b5f204afd5da438870
gsbg2017-01-21d02t03.flac:58d44246531b40ee0cb6c080354e58e4
gsbg2017-01-21d02t04.flac:564db27d601c2277bb8574d5048fa2ba
gsbg2017-01-21d02t05.flac:fe4b4e107cea2940e96c3c590b8d1e04
gsbg2017-01-21d02t06.flac:174c1e2865cbde3fea04acd75429912a
gsbg2017-01-21d02t07.flac:2349e9063171c11d935bd81c0f330506
gsbg2017-01-21d02t08.flac:4256069b362949f169cc84623abbdf73
gsbg2017-01-21d02t09.flac:5e54116db625e13b87827de00a3fc713
gsbg2017-01-21d03t01.flac:2b25f67f13d04d41b8327c134489f39d
gsbg2017-01-21d03t02.flac:e01d6fd5be53d1173469bb5d126e0650
gsbg2017-01-21d03t03.flac:0566621b5dc7f1ed1aa05e825d0ddb57
gsbg2017-01-21d03t04.flac:0eb71b66f7e4c5bfb7668f819edb2276
gsbg2017-01-21d03t05.flac:032002b608f81d1679f95e4d182fdd5d
gsbg2017-01-21d03t06.flac:7fc0314b58de49b128273a2f53f3e3fe
gsbg2017-01-21d03t07.flac:9833157a1ecb9d9e18df782c7e56adfe
gsbg2017-01-21d03t08.flac:8c8c6beccc9dfd07c233e8a2a62f4660

 length     expanded size    cdr  WAVE problems  fmt   ratio  filename
     0:48.43        8568380 B   ---   --   ---xx   flac  0.4215  gsbg2017-01-21d01t01.flac
     4:45.58       50410460 B   ---   --   ---xx   flac  0.4961  gsbg2017-01-21d01t02.flac
     3:22.21       35682236 B   ---   --   ---xx   flac  0.5229  gsbg2017-01-21d01t03.flac
    11:45.18      124404380 B   ---   --   ---xx   flac  0.5064  gsbg2017-01-21d01t04.flac
    12:42.45      134522684 B   ---   --   ---xx   flac  0.5240  gsbg2017-01-21d01t05.flac
     3:43.48       39450140 B   ---   --   ---xx   flac  0.5241  gsbg2017-01-21d01t06.flac
     5:36.53       59395100 B   ---   --   ---xx   flac  0.5171  gsbg2017-01-21d01t07.flac
     5:54.29       62513852 B   ---   --   ---xx   flac  0.5125  gsbg2017-01-21d01t08.flac
     3:05.30       32704604 B   ---   --   ---xx   flac  0.4998  gsbg2017-01-21d01t09.flac
    11:51.06      125434556 B   ---   --   ---xx   flac  0.5268  gsbg2017-01-21d01t10.flac
     0:57.02       10059548 B   ---   --   ---xx   flac  0.4253  gsbg2017-01-21d02t01.flac
     5:17.57       56052908 B   ---   --   ---xx   flac  0.5178  gsbg2017-01-21d02t02.flac
     9:43.36      102925916 B   ---   --   ---xx   flac  0.4761  gsbg2017-01-21d02t03.flac
     8:35.65       90998924 B   ---   --   ---xx   flac  0.5305  gsbg2017-01-21d02t04.flac
     4:46.19       50495132 B   ---   --   ---xx   flac  0.5297  gsbg2017-01-21d02t05.flac
     2:17.38       24256220 B   ---   --   ---xx   flac  0.5324  gsbg2017-01-21d02t06.flac
     2:21.04       24881852 B   ---   --   ---xx   flac  0.4524  gsbg2017-01-21d02t07.flac
     4:02.14       42721772 B   ---   --   ---xx   flac  0.5030  gsbg2017-01-21d02t08.flac
     4:00.21       42385436 B   ---   --   ---xx   flac  0.4957  gsbg2017-01-21d02t09.flac
     3:10.34       33596012 B   ---   --   ---xx   flac  0.4690  gsbg2017-01-21d03t01.flac
    14:32.19      153865532 B   ---   --   ---xx   flac  0.5118  gsbg2017-01-21d03t02.flac
     5:04.08       53644460 B   ---   --   ---xx   flac  0.5385  gsbg2017-01-21d03t03.flac
     2:12.66       23440076 B   ---   --   ---xx   flac  0.5000  gsbg2017-01-21d03t04.flac
     5:43.63       60653420 B   ---   --   ---xx   flac  0.5012  gsbg2017-01-21d03t05.flac
     4:30.52       47750348 B   ---   --   ---xx   flac  0.4706  gsbg2017-01-21d03t06.flac
     1:55.36       20370716 B   ---   --   ---xx   flac  0.4868  gsbg2017-01-21d03t07.flac
    12:00.32      127083308 B   ---   --   ---xx   flac  0.4991  gsbg2017-01-21d03t08.flac
   154:47.17     1638267972 B                            0.5078  (27 files)








More information about the bittorrent mailing list