[bittorrent] Front Country Iron City Birmingham, Alabama 1/20/2017 (Schoeps CCM4V'S FOB)

Automated Mailer noreply-bt.e at etree.org
Sat Jan 21 20:10:24 UTC 2017


Band:           Other
Torrent Name:   Front Country Iron City Birmingham, Alabama 1/20/2017 (Schoeps CCM4V'S FOB)
Uploaded by:    zmanatl
DB Link:        
Details:        http://bt.etree.org/details.php?id=590950

Contact the seeder at http://db.etree.org/zmanatl

If the link to this show does not work, it was probably removed for
being non-trade-friendly.

Description / text file:
-------------------------
Front Country
Iron City
Birmingham, Alabama
1/20/2017

Source: Schoeps CCM4V's>Lunatec V2>Benchmark AD2K>
Sound Devices 722 (24/44)
FOB/DFC/KFC/ZFC/AARP Clamped To The Rail Of The Front Of The Balcony
DSP: Sound Devices 722>Sound Forge 10.0>CD Wave>flac(16)
ID3 Tagged In Foobar 2000
Recorded By: Z-Man
Seeded By: Z-Man

Disc I 

01 Lonesome Town
02 Take Me Under
03 Sake Of The Sound
04 Storms
05 Rock Salt
06 Millionaire
07 Pupville
08 Band Introductions
09 Boys Of Summer
10 Gold Rush Goddess

Melody Walker - Vocals, Acoustic Guitar, And Percussion
Adam Roszkiewicz - Mandolin And Vocals
Jacob Groopman - Acoustic Guitar And Vocals
Leif Karlstrom - Fiddle
Jeremy Darrow - Bass

front2017-01-20d01t01.flac:e77fa6b6d1ee8a4d366741dacdb16c91
front2017-01-20d01t02.flac:7b4567c71c18a48021314804e66c85f3
front2017-01-20d01t03.flac:7c0bcfe37953c9c067ca48c2ca51e062
front2017-01-20d01t04.flac:53bbf5b3dc7a5fa6962c91df5b4eaa2c
front2017-01-20d01t05.flac:bd4c0824c75e9d3204d966d8cd4f7b80
front2017-01-20d01t06.flac:4819eee69425699f02a17f7cbe458eab
front2017-01-20d01t07.flac:56ca73a4f1cce0ff98bdd697a3d288bd
front2017-01-20d01t08.flac:2151577fdc0a4b2f4619ffcb153afe2c
front2017-01-20d01t09.flac:a33ef3b1a56873835983fdc551856b7a
front2017-01-20d01t10.flac:7023242396e0e4236a55513d9d9c1782

length     expanded size    cdr  WAVE problems  fmt   ratio  filename
     3:19.30       35174204 B   ---   --   ---xx   flac  0.4755  front2017-01-20d01t01.flac
     3:39.41       38728076 B   ---   --   ---xx   flac  0.4664  front2017-01-20d01t02.flac
     5:43.67       60662828 B   ---   --   ---xx   flac  0.4586  front2017-01-20d01t03.flac
     4:17.55       45464204 B   ---   --   ---xx   flac  0.4634  front2017-01-20d01t04.flac
     5:16.59       55881212 B   ---   --   ---xx   flac  0.4585  front2017-01-20d01t05.flac
     4:17.29       45403052 B   ---   --   ---xx   flac  0.4565  front2017-01-20d01t06.flac
     3:05.03       32641100 B   ---   --   ---xx   flac  0.4920  front2017-01-20d01t07.flac
     1:00.04       10593452 B   ---   --   ---xx   flac  0.4301  front2017-01-20d01t08.flac
     5:53.01       62271596 B   ---   --   ---xx   flac  0.4708  front2017-01-20d01t09.flac
    11:13.18      118759580 B   ---   --   ---xx   flac  0.5047  front2017-01-20d01t10.flac
    47:46.07      505579304 B                            0.4745  (10 files)









More information about the bittorrent mailing list