[bittorrent] Greensky Bluegrass Iron City Birmingham, Alabama 1/20/2017 (Schoeps CCM4V'S FOB)

Automated Mailer noreply-bt.e at etree.org
Sat Jan 21 11:03:46 UTC 2017


Band:           Greensky Bluegrass
Torrent Name:   Greensky Bluegrass Iron City Birmingham, Alabama 1/20/2017 (Schoeps CCM4V'S FOB)
Uploaded by:    zmanatl
DB Link:        
Details:        http://bt.etree.org/details.php?id=590940

Contact the seeder at http://db.etree.org/zmanatl

If the link to this show does not work, it was probably removed for
being non-trade-friendly.

Description / text file:
-------------------------
Greensky Bluegrass
Iron City
Birmingham, Alabama
1/20/2017

Source: Schoeps CCM4V's>Lunatec V2>Benchmark AD2K>
Sound Devices 722 (24/44)
FOB/DFC/KFC/ZFC/AARP Clamped To The Rail Of The Front Of The Balcony
DSP: Sound Devices 722>Sound Forge 10.0>CD Wave>flac(16)
ID3 Tagged In Foobar 2000
Recorded By: Z-Man
Seeded By: Z-Man

Disc I 1st Set

01 Greeting/Tuning
02 City Of New Orleans
03 Miss September
04 Clinche Mountain Backstep 
05 Jay Walkin' >
06 Handle With Care 
07 Room Without A Roof
08 Shout Out To Z-Man
09 200 Miles From Montana
10 Leap Year  

Disc II 2nd Set 

01 Letter To Seymour 
02 Out Of Control 
03 Can't Stop Now >
04 Shout >
05 Can't Stop Now 
06 Can't Make Time 
07 Take Cover
08 Small Axe
09 Cry Holy Unto The Lord 
10 Forget Every >
11 Jam >
12 Don't Lie
Encore:
13 Thanks
14 War Pigs

gsbg2017-01-20d01t01.flac:463bbd5c3a1ee1d474c58a761e990a23
gsbg2017-01-20d01t02.flac:d44d3666f70a4614396a2e86a59f6efc
gsbg2017-01-20d01t03.flac:a5509b61347a2a3933b7037fec6c7b16
gsbg2017-01-20d01t04.flac:242ef91614b420d4bbfc34b84e71ef0b
gsbg2017-01-20d01t05.flac:6a7ef9ca0fb2adc5cec67f0a4f8667bd
gsbg2017-01-20d01t06.flac:d2be95a0290bb13c4aacfebff9eab01f
gsbg2017-01-20d01t07.flac:d5a5b52c30909d889cc9e8b39da23e3f
gsbg2017-01-20d01t08.flac:62aae2119e60053b37c65936dcaf0eda
gsbg2017-01-20d01t09.flac:9dfc1b5a5cf25af240a763e8905906b2
gsbg2017-01-20d01t10.flac:afa5377fd8ec1239b99caa681ed6b5a2
gsbg2017-01-20d02t01.flac:7b0eb709ead7f9b029efc9f2cfaf3dec
gsbg2017-01-20d02t02.flac:dc83dc3204156425c63a19c755e63f16
gsbg2017-01-20d02t03.flac:d2b656470a0996abae1f245c47cda87f
gsbg2017-01-20d02t04.flac:0d1ef5787833cb1fc1e518131001e10b
gsbg2017-01-20d02t05.flac:3bc1eb748ad31c4f1eb1a8cbdc5c93ff
gsbg2017-01-20d02t06.flac:cbb5acffd7b0311cb40029770e0ce8e1
gsbg2017-01-20d02t07.flac:3dd83c3fe8b010fd302baea0e901e76e
gsbg2017-01-20d02t08.flac:fa6607f01ad91f39f3e38c2e5acf0385
gsbg2017-01-20d02t09.flac:91b9c2714adb86431afb8d0dcef3181c
gsbg2017-01-20d02t10.flac:883c0315e61b5c103ad184a52e1155e9
gsbg2017-01-20d02t11.flac:6302a559043d9e9d0cefb1943b2dcb0e
gsbg2017-01-20d02t12.flac:b0af6d1bfa786e761140448ecd5b845e
gsbg2017-01-20d02t13.flac:451ff5f729f5274e0f0e3d5cb52304ef
gsbg2017-01-20d02t14.flac:02c391963bfb350ad790073b86881e83
 
 length     expanded size    cdr  WAVE problems  fmt   ratio  filename
     0:49.09        8664812 B   ---   --   ---xx   flac  0.3990  gsbg2017-01-20d01t01.flac
     4:39.71       49382636 B   ---   --   ---xx   flac  0.5006  gsbg2017-01-20d01t02.flac
     4:37.36       48947516 B   ---   --   ---xx   flac  0.4983  gsbg2017-01-20d01t03.flac
     5:44.68       60841580 B   ---   --   ---xx   flac  0.5077  gsbg2017-01-20d01t04.flac
     5:33.10       58764764 B   ---   --   ---xx   flac  0.5140  gsbg2017-01-20d01t05.flac
    12:41.54      134367452 B   ---   --   ---xx   flac  0.5412  gsbg2017-01-20d01t06.flac
     8:33.61       90636716 B   ---   --   ---xx   flac  0.4966  gsbg2017-01-20d01t07.flac
     0:42.71        7575836 B   ---   --   ---xx   flac  0.4694  gsbg2017-01-20d01t08.flac
     5:41.37       60239468 B   ---   --   ---xx   flac  0.5028  gsbg2017-01-20d01t09.flac
    15:09.59      160486412 B   ---   --   ---xx   flac  0.5256  gsbg2017-01-20d01t10.flac
     2:34.05       27177404 B   ---   --   ---xx   flac  0.5254  gsbg2017-01-20d02t01.flac
     5:14.51       55509596 B   ---   --   ---xx   flac  0.5145  gsbg2017-01-20d02t02.flac
     5:18.10       56118764 B   ---   --   ---xx   flac  0.5334  gsbg2017-01-20d02t03.flac
     1:15.67       13387628 B   ---   --   ---xx   flac  0.4948  gsbg2017-01-20d02t04.flac
     3:33.44       37676732 B   ---   --   ---xx   flac  0.5304  gsbg2017-01-20d02t05.flac
     4:51.59       51471212 B   ---   --   ---xx   flac  0.5045  gsbg2017-01-20d02t06.flac
     4:39.09       49236812 B   ---   --   ---xx   flac  0.4921  gsbg2017-01-20d02t07.flac
    11:37.70      123115484 B   ---   --   ---xx   flac  0.4990  gsbg2017-01-20d02t08.flac
     3:16.14       34607372 B   ---   --   ---xx   flac  0.5165  gsbg2017-01-20d02t09.flac
     3:34.20       37796684 B   ---   --   ---xx   flac  0.4932  gsbg2017-01-20d02t10.flac
     5:06.50       54096044 B   ---   --   ---xx   flac  0.4612  gsbg2017-01-20d02t11.flac
    14:16.64      151148972 B   ---   --   ---xx   flac  0.5216  gsbg2017-01-20d02t12.flac
     1:05.65       11618924 B   ---   --   ---xx   flac  0.4291  gsbg2017-01-20d02t13.flac
     5:12.42       55135628 B   ---   --   ---xx   flac  0.5130  gsbg2017-01-20d02t14.flac
   135:51.71     1438004448 B                            0.5105  (24 files)










More information about the bittorrent mailing list