[bittorrent] Nate Nelson Trio Nik's Place Marietta, Georgia 1/19/2017 (Schoeps CCM4V'S FOB)

Automated Mailer noreply-bt.e at etree.org
Fri Jan 20 15:33:20 UTC 2017


Band:           Other
Torrent Name:   Nate Nelson Trio Nik's Place Marietta, Georgia 1/19/2017 (Schoeps CCM4V'S FOB)
Uploaded by:    zmanatl
DB Link:        
Details:        http://bt.etree.org/details.php?id=590922

Contact the seeder at http://db.etree.org/zmanatl

If the link to this show does not work, it was probably removed for
being non-trade-friendly.

Description / text file:
-------------------------
Nate Nelson Trio
Nik's Place
Marietta, Georgia
1/19/2017

Source: Schoeps CCM4V's>Lunatec V2>Benchmark AD2K>
Sound Devices 722 (24/44)
FOB/DFC/KFC/ZFC/AARP Stagelip, 6 1/2' High
DSP: Sound Devices 722>Sound Forge 10.0>CD Wave>flac(16)
ID3 Tagged In Foobar 2000
Recorded By: Z-Man
Seeded By: Z-Man

Disc I 

01 I Love My Darlin'
02 Bury Me Down At The Old Boneyard
03 Take This Hammer
04 You Don't Have To Spell It Out For Me
05 Settin' The Woods On Fire
06 Lonesome Boxcar Joe
07 I'll Be Gone
08 And You Got Trouble On Your Mind
09 Hey Sue, You Done Lost Your Man >
10 The Waitin' Game
11 ?
12 ?
13 ?
14 ?
15 I Knew You Would Marry Me
16 Get Bill Up To Play
17 *A Well Respected Man
18 *?
19 ?
20 Everyday
21 Banter/Tuning 
22 #Banana Pancakes
23 #?

* Bill Sheffield And Dave Roth Duet
# ? Solo Acoustic

Nate Nelson - Guitar And Vocals
Hailey - Guitar, Keyboards, And Vocals
Dave Roth - Bass And Vocals

nate2017-01-19d01t01.flac:21b4f47c35154ec116b8aa7c94887c4a
nate2017-01-19d01t02.flac:e67c5f610c2dc6979c0e1b966cccc5f4
nate2017-01-19d01t03.flac:4e40f976b0a367a2df4a51548fd70547
nate2017-01-19d01t04.flac:c4e9e14bdb213244474919d011257d6d
nate2017-01-19d01t05.flac:b676a5e2ee28db8c3418c74858a73a07
nate2017-01-19d01t06.flac:6bb0b86d1ca1008806b4da61ed2ee59a
nate2017-01-19d01t07.flac:0362acf4b510aad711f851561d21ab73
nate2017-01-19d01t08.flac:23258de17c73f01d039e117f4dce0001
nate2017-01-19d01t09.flac:e7450d7fbc60eb08ca6ab8f867a58e6a
nate2017-01-19d01t10.flac:57b46b540a8758bba66ed70640cc540e
nate2017-01-19d01t11.flac:be01cd2f4c66fd0cef9750aea51429aa
nate2017-01-19d01t12.flac:ca52d6b33fa5a0a89972e496c03bee43
nate2017-01-19d01t13.flac:08d207d4e60b70d663aa6640dc98dc77
nate2017-01-19d01t14.flac:c0a3d65d2448c501acb09127b99f49f0
nate2017-01-19d01t15.flac:f5e2875f90c1875093109a59380c9905
nate2017-01-19d01t16.flac:1c2db53ee141c8d4087a2349b83a8bea
nate2017-01-19d01t17.flac:1b31c9bc9a7023f54e91419578ffbd85
nate2017-01-19d01t18.flac:92028022fa3bfd318cb61c6992054b79
nate2017-01-19d01t19.flac:8c22ffd815a33d9160ce9eda7fd40b2d
nate2017-01-19d01t20.flac:f0ecbfe586128be7719fc69ff3d36068
nate2017-01-19d01t21.flac:a5a5168b9e650985f6dcaa12906188d7
nate2017-01-19d01t22.flac:d77781fc2cb13a6ddaa0225a09294f40
nate2017-01-19d01t23.flac:e37a0ea076613c3a783555c02296dce2

length     expanded size    cdr  WAVE problems  fmt   ratio  filename
     2:32.20       26859884 B   ---   --   ---xx   flac  0.3666  nate2017-01-19d01t01.flac
     2:32.14       26845772 B   ---   --   ---xx   flac  0.3689  nate2017-01-19d01t02.flac
     4:21.07       46056908 B   ---   --   ---xx   flac  0.3668  nate2017-01-19d01t03.flac
     4:06.27       43457948 B   ---   --   ---xx   flac  0.3826  nate2017-01-19d01t04.flac
     3:21.31       35529356 B   ---   --   ---xx   flac  0.3694  nate2017-01-19d01t05.flac
     3:24.10       36009164 B   ---   --   ---xx   flac  0.3924  nate2017-01-19d01t06.flac
     3:49.30       40466204 B   ---   --   ---xx   flac  0.4114  nate2017-01-19d01t07.flac
     3:58.03       41990300 B   ---   --   ---xx   flac  0.4056  nate2017-01-19d01t08.flac
     1:46.20       18745484 B   ---   --   ---xx   flac  0.4317  nate2017-01-19d01t09.flac
     3:14.62       34367468 B   ---   --   ---xx   flac  0.3918  nate2017-01-19d01t10.flac
     4:19.57       45821708 B   ---   --   ---xx   flac  0.3596  nate2017-01-19d01t11.flac
     5:28.31       57932156 B   ---   --   ---xx   flac  0.4120  nate2017-01-19d01t12.flac
     2:21.07       24888908 B   ---   --   ---xx   flac  0.4063  nate2017-01-19d01t13.flac
     4:15.17       45022028 B   ---   --   ---xx   flac  0.4122  nate2017-01-19d01t14.flac
     2:22.39       25140572 B   ---   --   ---xx   flac  0.4162  nate2017-01-19d01t15.flac
     1:13.21       12926636 B   ---   --   ---xx   flac  0.3189  nate2017-01-19d01t16.flac
     2:57.48       31335740 B   ---   --   ---xx   flac  0.4194  nate2017-01-19d01t17.flac
     4:17.33       45412460 B   ---   --   ---xx   flac  0.3923  nate2017-01-19d01t18.flac
     3:55.15       41489324 B   ---   --   ---xx   flac  0.3767  nate2017-01-19d01t19.flac
     2:19.07       24536108 B   ---   --   ---xx   flac  0.3681  nate2017-01-19d01t20.flac
     2:53.36       30601916 B   ---   --   ---xx   flac  0.3332  nate2017-01-19d01t21.flac
     4:16.63       45306620 B   ---   --   ---xx   flac  0.3793  nate2017-01-19d01t22.flac
     3:26.45       36444284 B   ---   --   ---xx   flac  0.3748  nate2017-01-19d01t23.flac
    77:12.43      817186948 B                            0.3867  (23 files)



















More information about the bittorrent mailing list