[bittorrent] gd1982-08-07.137625.sbd.miller.flac16

Automated Mailer noreply-bt.e at etree.org
Fri Jan 20 00:53:40 UTC 2017


Band:           Grateful Dead
Torrent Name:   gd1982-08-07.137625.sbd.miller.flac16
Uploaded by:    greendude
DB Link:        
Details:        http://bt.etree.org/details.php?id=590914

Contact the seeder at http://db.etree.org/greendude

If the link to this show does not work, it was probably removed for
being non-trade-friendly.

Description / text file:
-------------------------
Grateful Dead - August 7, 1982
Alpine Valley Music Theatre - East Troy, WI

Recording Info:
SBD > Cassette Master > Dat (44.1k)

Transfer Info:
Dat (Sony PCM-R500) > Samplitude Pro X3 Suite > FLAC
(2 Discs Audio / 1 DVD FLAC)

All Transfers and Mastering By Charlie Miller
charliemiller87 at earthlink.net
January 19, 2017

Notes:
-- Two sets of masters were used to make this complete

Set 1:
01 - The Music Never Stopped >
02 - Sugaree >
03 - The Music Never Stopped
04 - Me And My Uncle >
05 - Big River
06 - It Must Have Been The Roses
07 - C.C. Rider
08 - Ramble On Rose
09 - Beat It On Down The Line >
10 - On The Road Again >
11 - Althea
12 - Let It Grow

Set 2:
13 - China Cat Sunflower >
14 - I Know You Rider >
15 - Man Smart, Woman Smarter
16 - Ship Of Fools
17 - Playing In The Band >
18 - Drums >
19 - Space >
20 - The Wheel >
21 - Playing In The Band >
22 - Morning Dew >
23 - One More Saturday Night

Encore:
24 - U.S. Blues


SHNTOOL OUTPUT:
    length     expanded size    cdr  WAVE problems  fmt   ratio  filename
     4:19.32       45762908 B   ---   --   ---xx   flac  0.6365  01 The Music Never Stopped.flac
     9:51.20      104299484 B   ---   --   ---xx   flac  0.6490  02 Sugaree.flac
     3:59.55       42289004 B   ---   --   ---xx   flac  0.6466  03 The Music Never Stopped.flac
     3:02.33       32182460 B   ---   --   ---xx   flac  0.6607  04 Me And My Uncle.flac
     6:12.35       65703164 B   ---   --   ---xx   flac  0.6650  05 Big River.flac
     5:50.52       61862348 B   ---   --   ---xx   flac  0.6172  06 It Must Have Been The Roses.flac
     7:34.05       80097404 B   ---   --   ---xx   flac  0.6465  07 CC Rider.flac
     7:31.08       79575260 B   ---   --   ---xx   flac  0.6362  08 Ramble On Rose.flac
     3:11.05       33704204 B   ---   --   ---xx   flac  0.6548  09 Beat It On Down The Line.flac
     3:04.05       32469404 B   ---   --   ---xx   flac  0.6386  10 On The Road Again.flac
     7:56.27       84029948 B   ---   --   ---xx   flac  0.6282  11 Althea.flac
    11:46.38      124627820 B   ---   --   ---xx   flac  0.6361  12 Let It Grow.flac
     6:42.00       70912844 B   ---   --   ---xx   flac  0.6442  13 China Cat Sunflower.flac
     7:43.27       81736748 B   ---   --   ---xx   flac  0.6650  14 I Know You Rider.flac
     8:29.20       89834684 B   ---   --   ---xx   flac  0.6558  15 Man Smart, Woman Smarter.flac
     6:39.10       70407164 B   ---   --   ---xx   flac  0.6276  16 Ship Of Fools.flac
    11:14.58      119030060 B   ---   --   ---xx   flac  0.6699  17 Playing In The Band.flac
     5:30.42       58310828 B   ---   --   ---xx   flac  0.6472  18 Drums.flac
     5:31.30       58459004 B   ---   --   ---xx   flac  0.5827  19 Space.flac
     5:51.20       61963484 B   ---   --   ---xx   flac  0.6437  20 The Wheel.flac
     4:08.58       43883660 B   ---   --   ---xx   flac  0.6382  21 Playing In The Band.flac
    10:11.12      107808668 B   ---   --   ---xx   flac  0.6187  22 Morning Dew.flac
     4:59.50       52861244 B   ---   --   ---xx   flac  0.6727  23 One More Saturday Night.flac
     5:15.43       55667180 B   ---   --   ---xx   flac  0.6423  24 US Blues.flac
   156:36.10     1657478976 B                            0.6426  (24 files)




More information about the bittorrent mailing list