[bittorrent] Front Country Georgia Theatre Athens, Georgia 1/18/2017 (Schoeps CCM4V'S FOB)

Automated Mailer noreply-bt.e at etree.org
Thu Jan 19 20:05:46 UTC 2017


Band:           Other
Torrent Name:   Front Country Georgia Theatre Athens, Georgia 1/18/2017 (Schoeps CCM4V'S FOB)
Uploaded by:    zmanatl
DB Link:        
Details:        http://bt.etree.org/details.php?id=590911

Contact the seeder at http://db.etree.org/zmanatl

If the link to this show does not work, it was probably removed for
being non-trade-friendly.

Description / text file:
-------------------------
Front Country
Georgia Theatre
Athens, Georgia
1/18/2017

Source: Schoeps CCM4V's>Lunatec V2>Benchmark AD2K>
Sound Devices 722 (24/44)
FOB/DFC/KFC/ZFC/AARP Clamped To The Rail Of The Front Of The Balcony
DSP: Sound Devices 722>Sound Forge 10.0>CD Wave>flac(16)
ID3 Tagged In Foobar 2000
Recorded By: Z-Man
Seeded By: Z-Man

Disc I 

01 ?
02 ?
03 Sake Of The Sound
04 ?
05 ?
06 ?
07 Pupville
08 Band Introductions 
09 I Wanna e A Family Man
10 The Gold Rush Goddess

front2017-01-18d01t01.flac:828f8ac26c4e5ccd5401af13dc3e818c
front2017-01-18d01t02.flac:5fc0a52f0f3cc08dc76fca59d7b7a436
front2017-01-18d01t03.flac:cfe17342b3c6465e7b76a8948460c3b0
front2017-01-18d01t04.flac:5cc63fa9dc430fd1bb46ee9d96b25ece
front2017-01-18d01t05.flac:add1a9827ec1fa659bab7ed0103196ef
front2017-01-18d01t06.flac:28e46145369c1303165cad0c968d5454
front2017-01-18d01t07.flac:aa0e4fbc6847d16b6effd1ea2b0c77df
front2017-01-18d01t08.flac:b705e8b8a89fa6a7beeab54db9e3f147
front2017-01-18d01t09.flac:d451b92a889ead622bb63fea532f6013
front2017-01-18d01t10.flac:19476c27552d11acac6e568176ce7a31

 length     expanded size    cdr  WAVE problems  fmt   ratio  filename
     3:22.57       35766908 B   ---   --   ---xx   flac  0.5451  front2017-01-18d01t01.flac
     3:40.48       38920940 B   ---   --   ---xx   flac  0.4945  front2017-01-18d01t02.flac
     6:02.05       63868604 B   ---   --   ---xx   flac  0.4864  front2017-01-18d01t03.flac
     4:18.28       45577100 B   ---   --   ---xx   flac  0.4798  front2017-01-18d01t04.flac
     5:10.21       54733436 B   ---   --   ---xx   flac  0.4810  front2017-01-18d01t05.flac
     4:00.46       42444236 B   ---   --   ---xx   flac  0.4704  front2017-01-18d01t06.flac
     3:10.58       33652460 B   ---   --   ---xx   flac  0.5179  front2017-01-18d01t07.flac
     0:51.64        9146972 B   ---   --   ---xx   flac  0.4055  front2017-01-18d01t08.flac
     3:50.24       40628492 B   ---   --   ---xx   flac  0.5132  front2017-01-18d01t09.flac
    10:32.45      111590684 B   ---   --   ---xx   flac  0.5188  front2017-01-18d01t10.flac
    45:00.21      476329832 B                            0.4994  (10 files)









More information about the bittorrent mailing list