[bittorrent] Greensky Bluegrass Georgia Theatre Athens, Georgia 1/18/2017 (Schoeps CCM4V'S FOB)

Automated Mailer noreply-bt.e at etree.org
Thu Jan 19 08:00:20 UTC 2017


Band:           Greensky Bluegrass
Torrent Name:   Greensky Bluegrass Georgia Theatre Athens, Georgia 1/18/2017 (Schoeps CCM4V'S FOB)
Uploaded by:    zmanatl
DB Link:        
Details:        http://bt.etree.org/details.php?id=590903

Contact the seeder at http://db.etree.org/zmanatl

If the link to this show does not work, it was probably removed for
being non-trade-friendly.

Description / text file:
-------------------------
Greensky Bluegrass
Georgia Theatre
Athens, Georgia
1/18/2017

Source: Schoeps CCM4V's>Lunatec V2>Benchmark AD2K>
Sound Devices 722 (24/44)
FOB/DFC/KFC/ZFC/AARP Clamped To The Rail Of The Front Of The Balcony
DSP: Sound Devices 722>Sound Forge 10.0>CD Wave>flac(16)
ID3 Tagged In Foobar 2000
Recorded By: Z-Man
Seeded By: Z-Man

Disc I 1st Set

01 Greeting/Tuning
02 Hold On
03 Past My Prime >
04 Bringin' In The Georgia Mail
05 Last Winter In Copper County
06 Cold Feet
07 Casual Wednesday >
08 New Rise
09 Hand Guns
10 Blood-Sucking F(r)iends >
11 Broke Mountain Breakdown >
12 Atlantic City

Disc II 2nd Set 

01 *Miss September
02 #Kerosene
03 While Waiting
04 @Little Maggie >
05 ^Old Barns
06 Banter
07 Better Off
08 Burn Them 
09 The Four >
10 Train Junkie
Encore:
11 Thanks
12 Money For Nothing

* My Deck Did Not Want To Fire Up. The Source For This Song Is My Sony Mic On My Little Camera. 
Not Great Sound, But Better Than Nothing.
# With Let It Grow Jam
@ With Jessica And Mountain Jam Teases
^ Slow Tempo

gsbg2017-01-18d01t01.flac:5af32312e4ba762752739b6df28111b9
gsbg2017-01-18d01t02.flac:475506a62ecc846e05e9a0e471cfc6d2
gsbg2017-01-18d01t03.flac:19d93027b35a4b83e399d9976cd69df5
gsbg2017-01-18d01t04.flac:ca38ad549ee0ae16d07197975b053ba3
gsbg2017-01-18d01t05.flac:2edcd134b69999dc3664682799d03d6b
gsbg2017-01-18d01t06.flac:c7e3af9b14bfe5bf1611c630628828d3
gsbg2017-01-18d01t07.flac:8392ee040873c66add73f3261bd2d629
gsbg2017-01-18d01t08.flac:1cac46b1f590a7ee77dd269ff37ccc69
gsbg2017-01-18d01t09.flac:1c259a469f1f25e17901429b0a2023ab
gsbg2017-01-18d01t10.flac:acc7027a8b0b1884160bb30b3164c792
gsbg2017-01-18d01t11.flac:5fdcad8d8ddc56f8cc099e8ec2d4a925
gsbg2017-01-18d01t12.flac:042be55f229fe71838ba431db7d4dc1d
gsbg2017-01-18d02t01.flac:45ba4a8fb8ec80c5b37550e75533c9ad
gsbg2017-01-18d02t02.flac:55ca902100f8a1ab4119a31f8fd56081
gsbg2017-01-18d02t03.flac:6e583de523c21888daa0f76783621257
gsbg2017-01-18d02t04.flac:96adf3b394445fbb23a462074deb2fa8
gsbg2017-01-18d02t05.flac:04a864f797e6dbaef98fa1853c5273a6
gsbg2017-01-18d02t06.flac:0c24a2d898b1aecb60c7f8c75e1f5aa7
gsbg2017-01-18d02t07.flac:441dad394f246021f81f2db8164918d9
gsbg2017-01-18d02t08.flac:214acef1e45ded40ff149e8fba5ae16e
gsbg2017-01-18d02t09.flac:8c1c8bdb65ad81c9f6d06f7f9270e32b
gsbg2017-01-18d02t10.flac:f79aeba149c2c2532aa6e480cafeacbf
gsbg2017-01-18d02t11.flac:7c2f3f645cceec548bbd28dfc740104c
gsbg2017-01-18d02t12.flac:60b4f9106386bde771695591a5bce6f8

 length     expanded size    cdr  WAVE problems  fmt   ratio  filename
     0:51.04        9005852 B   ---   --   ---xx   flac  0.4128  gsbg2017-01-18d01t01.flac
     4:07.01       43573196 B   ---   --   ---xx   flac  0.4807  gsbg2017-01-18d01t02.flac
     3:24.38       36075020 B   ---   --   ---xx   flac  0.5131  gsbg2017-01-18d01t03.flac
     3:38.08       38474060 B   ---   --   ---xx   flac  0.5101  gsbg2017-01-18d01t04.flac
    14:48.50      156760844 B   ---   --   ---xx   flac  0.4881  gsbg2017-01-18d01t05.flac
     4:25.35       46828364 B   ---   --   ---xx   flac  0.5031  gsbg2017-01-18d01t06.flac
     3:57.74       41980892 B   ---   --   ---xx   flac  0.4814  gsbg2017-01-18d01t07.flac
     4:18.08       45530060 B   ---   --   ---xx   flac  0.5071  gsbg2017-01-18d01t08.flac
     3:40.14       38840972 B   ---   --   ---xx   flac  0.5061  gsbg2017-01-18d01t09.flac
     2:09.41       22852076 B   ---   --   ---xx   flac  0.5310  gsbg2017-01-18d01t10.flac
    14:25.72      152755388 B   ---   --   ---xx   flac  0.5079  gsbg2017-01-18d01t11.flac
     5:58.40       63245324 B   ---   --   ---xx   flac  0.5223  gsbg2017-01-18d01t12.flac
     3:43.09       39358412 B   ---   --   ---xx   flac  0.5363  gsbg2017-01-18d02t01.flac
    11:52.61      125740316 B   ---   --   ---xx   flac  0.5452  gsbg2017-01-18d02t02.flac
     3:27.45       36620684 B   ---   --   ---xx   flac  0.5039  gsbg2017-01-18d02t03.flac
     9:21.68       99120380 B   ---   --   ---xx   flac  0.5252  gsbg2017-01-18d02t04.flac
     4:20.56       45995756 B   ---   --   ---xx   flac  0.5525  gsbg2017-01-18d02t05.flac
     2:07.03       22409900 B   ---   --   ---xx   flac  0.4603  gsbg2017-01-18d02t06.flac
     4:20.55       45993404 B   ---   --   ---xx   flac  0.5413  gsbg2017-01-18d02t07.flac
     4:01.59       42651212 B   ---   --   ---xx   flac  0.5347  gsbg2017-01-18d02t08.flac
     5:47.62       61356668 B   ---   --   ---xx   flac  0.5234  gsbg2017-01-18d02t09.flac
    13:04.39      138389372 B   ---   --   ---xx   flac  0.5510  gsbg2017-01-18d02t10.flac
     0:35.49        6289292 B   ---   --   ---xx   flac  0.4707  gsbg2017-01-18d02t11.flac
     5:44.73       60853340 B   ---   --   ---xx   flac  0.5412  gsbg2017-01-18d02t12.flac
   134:13.64     1420700784 B                            0.5184  (24 files)













Greensky Bluegrass
Georgia Theatre
Athens, Georgia
1/18/2017

Source: Schoeps CCM4V's>Lunatec V2>Benchmark AD2K>
Sound Devices 722 (24/44)
FOB/DFC/KFC/ZFC/AARP Clamped To The Rail Of The Front Of The Balcony
DSP: Sound Devices 722>Sound Forge 10.0>CD Wave>flac(16)
ID3 Tagged In Foobar 2000
Recorded By: Z-Man
Seeded By: Z-Man

Disc I 1st Set

01 Greeting/Tuning
02 Hold On
03 Past My Prime >
04 Bringin' In The Georgia Mail
05 Last Winter In Copper County
06 Cold Feet
07 Casual Wednesday >
08 New Rise
09 Hand Guns
10 Blood-Sucking F(r)iends >
11 Broke Mountain Breakdown >
12 Atlantic City

Disc II 2nd Set 

01 *Miss September
02 #Kerosene
03 While Waiting
04 @Little Maggie >
05 ^Old Barns
06 Banter
07 Better Off
08 Burn Them 
09 The Four >
10 Train Junkie
Encore:
11 Thanks
12 Money For Nothing

* My Deck Did Not Want To Fire Up. The Source For This Song Is My Sony Mic On My Little Camera. 
Not Great Sound, But Better Than Nothing.
# With Let It Grow Jam
@ With Jessica And Mountain Jam Teases
^ Slow Tempo

gsbg2017-01-18d01t01.flac:5af32312e4ba762752739b6df28111b9
gsbg2017-01-18d01t02.flac:475506a62ecc846e05e9a0e471cfc6d2
gsbg2017-01-18d01t03.flac:19d93027b35a4b83e399d9976cd69df5
gsbg2017-01-18d01t04.flac:ca38ad549ee0ae16d07197975b053ba3
gsbg2017-01-18d01t05.flac:2edcd134b69999dc3664682799d03d6b
gsbg2017-01-18d01t06.flac:c7e3af9b14bfe5bf1611c630628828d3
gsbg2017-01-18d01t07.flac:8392ee040873c66add73f3261bd2d629
gsbg2017-01-18d01t08.flac:1cac46b1f590a7ee77dd269ff37ccc69
gsbg2017-01-18d01t09.flac:1c259a469f1f25e17901429b0a2023ab
gsbg2017-01-18d01t10.flac:acc7027a8b0b1884160bb30b3164c792
gsbg2017-01-18d01t11.flac:5fdcad8d8ddc56f8cc099e8ec2d4a925
gsbg2017-01-18d01t12.flac:042be55f229fe71838ba431db7d4dc1d
gsbg2017-01-18d02t01.flac:45ba4a8fb8ec80c5b37550e75533c9ad
gsbg2017-01-18d02t02.flac:55ca902100f8a1ab4119a31f8fd56081
gsbg2017-01-18d02t03.flac:6e583de523c21888daa0f76783621257
gsbg2017-01-18d02t04.flac:96adf3b394445fbb23a462074deb2fa8
gsbg2017-01-18d02t05.flac:04a864f797e6dbaef98fa1853c5273a6
gsbg2017-01-18d02t06.flac:0c24a2d898b1aecb60c7f8c75e1f5aa7
gsbg2017-01-18d02t07.flac:441dad394f246021f81f2db8164918d9
gsbg2017-01-18d02t08.flac:214acef1e45ded40ff149e8fba5ae16e
gsbg2017-01-18d02t09.flac:8c1c8bdb65ad81c9f6d06f7f9270e32b
gsbg2017-01-18d02t10.flac:f79aeba149c2c2532aa6e480cafeacbf
gsbg2017-01-18d02t11.flac:7c2f3f645cceec548bbd28dfc740104c
gsbg2017-01-18d02t12.flac:60b4f9106386bde771695591a5bce6f8

 length     expanded size    cdr  WAVE problems  fmt   ratio  filename
     0:51.04        9005852 B   ---   --   ---xx   flac  0.4128  gsbg2017-01-18d01t01.flac
     4:07.01       43573196 B   ---   --   ---xx   flac  0.4807  gsbg2017-01-18d01t02.flac
     3:24.38       36075020 B   ---   --   ---xx   flac  0.5131  gsbg2017-01-18d01t03.flac
     3:38.08       38474060 B   ---   --   ---xx   flac  0.5101  gsbg2017-01-18d01t04.flac
    14:48.50      156760844 B   ---   --   ---xx   flac  0.4881  gsbg2017-01-18d01t05.flac
     4:25.35       46828364 B   ---   --   ---xx   flac  0.5031  gsbg2017-01-18d01t06.flac
     3:57.74       41980892 B   ---   --   ---xx   flac  0.4814  gsbg2017-01-18d01t07.flac
     4:18.08       45530060 B   ---   --   ---xx   flac  0.5071  gsbg2017-01-18d01t08.flac
     3:40.14       38840972 B   ---   --   ---xx   flac  0.5061  gsbg2017-01-18d01t09.flac
     2:09.41       22852076 B   ---   --   ---xx   flac  0.5310  gsbg2017-01-18d01t10.flac
    14:25.72      152755388 B   ---   --   ---xx   flac  0.5079  gsbg2017-01-18d01t11.flac
     5:58.40       63245324 B   ---   --   ---xx   flac  0.5223  gsbg2017-01-18d01t12.flac
     3:43.09       39358412 B   ---   --   ---xx   flac  0.5363  gsbg2017-01-18d02t01.flac
    11:52.61      125740316 B   ---   --   ---xx   flac  0.5452  gsbg2017-01-18d02t02.flac
     3:27.45       36620684 B   ---   --   ---xx   flac  0.5039  gsbg2017-01-18d02t03.flac
     9:21.68       99120380 B   ---   --   ---xx   flac  0.5252  gsbg2017-01-18d02t04.flac
     4:20.56       45995756 B   ---   --   ---xx   flac  0.5525  gsbg2017-01-18d02t05.flac
     2:07.03       22409900 B   ---   --   ---xx   flac  0.4603  gsbg2017-01-18d02t06.flac
     4:20.55       45993404 B   ---   --   ---xx   flac  0.5413  gsbg2017-01-18d02t07.flac
     4:01.59       42651212 B   ---   --   ---xx   flac  0.5347  gsbg2017-01-18d02t08.flac
     5:47.62       61356668 B   ---   --   ---xx   flac  0.5234  gsbg2017-01-18d02t09.flac
    13:04.39      138389372 B   ---   --   ---xx   flac  0.5510  gsbg2017-01-18d02t10.flac
     0:35.49        6289292 B   ---   --   ---xx   flac  0.4707  gsbg2017-01-18d02t11.flac
     5:44.73       60853340 B   ---   --   ---xx   flac  0.5412  gsbg2017-01-18d02t12.flac
   134:13.64     1420700784 B                            0.5184  (24 files)

















































More information about the bittorrent mailing list