[bittorrent] gd1977-05-08.137571.mtx-2aud.dusborne.flac24

Automated Mailer noreply-bt.e at etree.org
Thu Jan 19 03:19:49 UTC 2017


Band:           Grateful Dead
Torrent Name:   gd1977-05-08.137571.mtx-2aud.dusborne.flac24
Uploaded by:    greendude
DB Link:        
Details:        http://bt.etree.org/details.php?id=590897

Contact the seeder at http://db.etree.org/greendude

If the link to this show does not work, it was probably removed for
being non-trade-friendly.

Description / text file:
-------------------------
Grateful Dead
May 8, 1977
Barton Hall 
Cornell University
Ithaca, NY

2 Source Matrix


Audience 1 (shnid:117027)
-----------------------------------------------------------------------------------------------------
gd77-05-08.ecm33p.moore.berger.miller.117027.flac24

File type 24 bit

source: aud taped by Jerry Moore
	
a)cassette master>10.5" reel @ 7.5 ips, dolby b provides a majority of the show,
b)Scarlet>Fire provided by cassette master patched from same rig>JM's cassette>reel (as above)
b)The One More Sat Nite encore is from the newly discovered original cassette master 
and has only been included in previous seeds from the 1st gen reel

lineage for source 1 (with exceptions noted above):  
aud cassette master: sony ecm 33p's>sony tc-153, maxell udxLII90's/dolby b>
aud 1st gen: made on Sony TC-755 w/Teac an-180 dolby unit, Scotch Classic 10.5" reels

transfer:
technics rs-1506 open reel>teac an-180 dolby b unit>tascam hd-p2 24/96>flac
encore: nak dragon>tascam hd-p2 24/96>pc>flac
new transfers by Rob Berger spring 2011

mastering, pitch correction, and seeded by Charlie Miller 
November 10, 2011

Audience 2 (shnid:29303)
-----------------------------------------------------------------------------------------------------
gd1977-05-08.shure57.stevenson.29303.flac16

Handheld Shure 57's,10 Feet From Stage,DFC>TC152>MC
MC>CDR>EAC>WAV>FLAC

Notes:
-10 Feet From Stage=Great Instrement Pickup,
 Vocals A Bit Lower Than Moore's Copy.
-A Few Pauses But Not Many,Tape Filp After D01T08,D03T03
 Flip Durning NFA Crossfaded And Is Barely Noticeable,
 Probably Lost 3-4 Sec's 
-Minimal Crowd Chatter, But With Handheld Mic's, Up Front,
 there Are A Few Spots Where In An Ideal World, A Few People
 Would Have Been Standing Somewhere Else.
-if Anyone Wants To  Matrix This Feel Free, I'd Love To Hear It!

Recording And Transfer:Jeff Stevenson
--------------------------------------------------------------------------------------------------
---Thank you Jerry Moore and Jeff Stevenson for recording the show.
---Thank you Rob Berger for the AUD transfer.(shnid:117027)
---Thank you Charlie Miller for your work on the AUD.(shnid:117027)
---Thank you Germain for your advice, encouragement, guidance and seeding.

Matrix by dusborne

01-12-2017
----------------------------------------------------------------------------------------------
Set 1

101 - gd77-05-08s1t01 - Tuning 
102 - gd77-05-08s1t02 - Minglewood Blues 
103 - gd77-05-08s1t03 - Loser 
104 - gd77-05-08s1t04 - El Paso 
105 - gd77-05-08s1t05 - They Love Each Other 
106 - gd77-05-08s1t06 - Jack Straw 
107 - gd77-05-08s1t07 - Deal 
108 - gd77-05-08s1t08 - Lazy Lightning ->  
109 - gd77-05-08s1t09 - Supplication 
110 - gd77-05-08s1t10 - Brown Eyed Women 
111 - gd77-05-08s1t11 - Mama Tried 
112 - gd77-05-08s1t12 - Row Jimmy 
113 - gd77-05-08s1t13 - Dancin' In the Streets

Set 2
 
201 - gd77-05-08s2t01 - Take A Step Back 
202 - gd77-05-08s2t02 - Scarlet Begonias -> 
203 - gd77-05-08s2t03 - Fire on the Mountain 
204 - gd77-05-08s2t04 - Estimated Prophet 
205 - gd77-05-08s2t05 - Saint Stephen ->
206 - gd77-05-08s2t06 - Not Fade Away -> 
207 - gd77-05-08s2t07 - Saint Stephen -> 
208 - gd77-05-08s2t08 - Morning Dew 
   
Encore 
209 - gd77-05-08s2t09 - One More Saturday Night
---------------------------------------------------------------------------------------------

Tagging notes:
Show information is embedded within the header
of each flac file. It will display on any player 
capable of directly playing flac files. 
If converted to wav during processing, all tags 
will be stripped, however audio data will remain 
unaffected. If you must transcode to a lossy format, 
do so directly Flac > Lossy.
Use st5 to validate audio integrity.
Md5 values will change if tagging is altered.

Dave Usborne 01-12-2017
---------------------------------------------------------------------------------------------------
length     expanded size    cdr  WAVE problems  fmt   ratio  filename
     0:39.947      23009324 B   cxx   --   ---xx   flac  0.5797  gd77-05-08s1t01.flac
     5:23.093     186101804 B   cxx   --   ---xx   flac  0.6370  gd77-05-08s1t02.flac
     8:50.707     305687084 B   cxx   --   ---xx   flac  0.6278  gd77-05-08s1t03.flac
     5:23.880     186554924 B   cxx   --   ---xx   flac  0.6214  gd77-05-08s1t04.flac
     8:46.053     303006764 B   cxx   --   ---xx   flac  0.6234  gd77-05-08s1t05.flac
     7:47.893     269506604 B   cxx   --   ---xx   flac  0.6326  gd77-05-08s1t06.flac
     7:15.680     250951724 B   cxx   --   ---xx   flac  0.6350  gd77-05-08s1t07.flac
     3:29.467     120652844 B   cxx   --   ---xx   flac  0.6402  gd77-05-08s1t08.flac
     5:00.533     173107244 B   cxx   --   ---xx   flac  0.6382  gd77-05-08s1t09.flac
     6:49.800     236044844 B   cxx   --   ---xx   flac  0.6233  gd77-05-08s1t10.flac
     3:44.587     129361964 B   cxx   --   ---xx   flac  0.6314  gd77-05-08s1t11.flac
    13:07.027     453327404 B   cxx   --   ---xx   flac  0.6214  gd77-05-08s1t12.flac
    16:14.547     561338924 B   cxx   --   ---xx   flac  0.6356  gd77-05-08s1t13.flac
     1:49.587      63121964 B   cxx   --   ---xx   flac  0.6129  gd77-05-08s2t01.flac
    11:30.533     397747244 B   cxx   --   ---xx   flac  0.6391  gd77-05-08s2t02.flac
    15:16.267     527769644 B   cxx   --   ---xx   flac  0.6383  gd77-05-08s2t03.flac
     9:34.827     331100204 B   cxx   --   ---xx   flac  0.6253  gd77-05-08s2t04.flac
     4:46.653     165112364 B   cxx   --   ---xx   flac  0.6360  gd77-05-08s2t05.flac
    17:17.240     597450284 B   cxx   --   ---xx   flac  0.6379  gd77-05-08s2t06.flac
     0:55.200      31795244 B   cxx   --   ---xx   flac  0.6411  gd77-05-08s2t07.flac
    17:27.200     603187244 B   cxx   --   ---xx   flac  0.6370  gd77-05-08s2t08.flac
     5:23.147     186132524 B   cxx   --   ---xx   flac  0.6623  gd77-05-08s2t09.flac
   176:33.867    6102068168 B                            0.6333  (22 files)



More information about the bittorrent mailing list