[bittorrent] Joe Grandsden's Jazz Jam Venkman's Atlanta, Georgia 1/17/2017 (Schoeps CCM4V'S FOB)

Automated Mailer noreply-bt.e at etree.org
Wed Jan 18 17:55:47 UTC 2017


Band:           Other
Torrent Name:   Joe Grandsden's Jazz Jam Venkman's Atlanta, Georgia 1/17/2017 (Schoeps CCM4V'S FOB)
Uploaded by:    zmanatl
DB Link:        
Details:        http://bt.etree.org/details.php?id=590883

Contact the seeder at http://db.etree.org/zmanatl

If the link to this show does not work, it was probably removed for
being non-trade-friendly.

Description / text file:
-------------------------
Joe Grandsden's Jazz Jam
Venman's
Atlanta, Georgia
1/17/2017

Source: Schoeps CCM4V's>Lunatec V2>Benchmark AD2K>
Sound Devices 722 (24/44)
FOB/DFC/KFC/ZFC/AARP 18' From Stage, 8' High
DSP: Sound Devices 722>Sound Forge 10.0>CD Wave>flac(16)
ID3 Tagged In Foobar 2000
Recorded By: Z-Man
Seeded By: Z-Man

Disc I 

01 ?
02 ?
03 Misty 
04 ?
05 The Nearness Of You
06 All Of Me
07 The Girl From Ipanema

Disc II 

01 Take The A Train
02 Summertime
03 Moment's Notice 
04 ?
05 Happy Birthday Joe
06 You Don't Know Me
07 ?
08 Dream A Little Dream Of Me

Disc III 

01 ?
02 Song For My Father
03 I Remember You
04 There Is No Greater Love
05 ?
06 All The Way
07 ?

joe2017-01-17d01t01.flac:222ca8267cdaf176294b06cc8fd8f276
joe2017-01-17d01t02.flac:f5eb9b9c100cb4645a9a8558cfa695d9
joe2017-01-17d01t03.flac:0b1779c3266bde77e4f3f1f29e3a3b0a
joe2017-01-17d01t04.flac:4320e3fc269fe4bcac3b4aec51bac978
joe2017-01-17d01t05.flac:a83eb28b9ef69b36d76c03e9557e78bb
joe2017-01-17d01t06.flac:3c3b6a683dbba3c0d055da2b7b8357d3
joe2017-01-17d01t07.flac:06a1c0924d2d6b2d3d17489d3c789293
joe2017-01-17d02t01.flac:200f6fd50c20a7394006278fec86316f
joe2017-01-17d02t02.flac:64d8a3a24d9c8802e1e06786c6a8aa7f
joe2017-01-17d02t03.flac:e29595558627c782fbabc340e337fbcb
joe2017-01-17d02t04.flac:74b5932e5a0d9702f58673d5b8e5bc57
joe2017-01-17d02t05.flac:31ba93350ca19d245787c67216c0ea47
joe2017-01-17d02t06.flac:35a050162e357e363e61dc400f5b495f
joe2017-01-17d02t07.flac:9702e4b57888791fd4738fa7a396e68d
joe2017-01-17d02t08.flac:2d589be0106a1c1a6d448a6165dba46b
joe2017-01-17d03t01.flac:ff5b935c4ab5498e8c8d0858e2c58157
joe2017-01-17d03t02.flac:2183df9df06bf1fd772c2a9b80b3daac
joe2017-01-17d03t03.flac:a7d9c19f50eec61682fc083531bd1775
joe2017-01-17d03t04.flac:8e333aa01c185323092dda1ca8ac0bc0
joe2017-01-17d03t05.flac:797b01b41e608d835421caa7b5e1e031
joe2017-01-17d03t06.flac:50a1175c6e978605ff3c8143c87f59de
joe2017-01-17d03t07.flac:c21666a9e26a61587fdf030f1306586c

  length     expanded size    cdr  WAVE problems  fmt   ratio  filename
    12:07.61      128386316 B   ---   --   ---xx   flac  0.5206  joe2017-01-17d01t01.flac
     8:16.40       87588524 B   ---   --   ---xx   flac  0.5105  joe2017-01-17d01t02.flac
     7:51.42       83183228 B   ---   --   ---xx   flac  0.4684  joe2017-01-17d01t03.flac
    13:09.69      139341932 B   ---   --   ---xx   flac  0.5457  joe2017-01-17d01t04.flac
     6:48.58       72107660 B   ---   --   ---xx   flac  0.4604  joe2017-01-17d01t05.flac
     3:14.53       34346300 B   ---   --   ---xx   flac  0.5221  joe2017-01-17d01t06.flac
     6:13.25       65856044 B   ---   --   ---xx   flac  0.5323  joe2017-01-17d01t07.flac
     9:02.21       95658236 B   ---   --   ---xx   flac  0.5451  joe2017-01-17d02t01.flac
     4:17.14       45367772 B   ---   --   ---xx   flac  0.5143  joe2017-01-17d02t02.flac
    10:24.26      110134796 B   ---   --   ---xx   flac  0.5564  joe2017-01-17d02t03.flac
     8:35.61       90989516 B   ---   --   ---xx   flac  0.5253  joe2017-01-17d02t04.flac
     7:18.60       77404364 B   ---   --   ---xx   flac  0.5148  joe2017-01-17d02t05.flac
     5:27.38       57772220 B   ---   --   ---xx   flac  0.4911  joe2017-01-17d02t06.flac
     7:36.06       80452556 B   ---   --   ---xx   flac  0.5435  joe2017-01-17d02t07.flac
     3:47.03       40049900 B   ---   --   ---xx   flac  0.4871  joe2017-01-17d02t08.flac
    11:53.25      125832044 B   ---   --   ---xx   flac  0.5686  joe2017-01-17d03t01.flac
    10:42.37      113335868 B   ---   --   ---xx   flac  0.5493  joe2017-01-17d03t02.flac
     4:32.22       48032588 B   ---   --   ---xx   flac  0.5229  joe2017-01-17d03t03.flac
     5:06.61       54121916 B   ---   --   ---xx   flac  0.5236  joe2017-01-17d03t04.flac
     6:35.30       69748604 B   ---   --   ---xx   flac  0.4899  joe2017-01-17d03t05.flac
     3:06.20       32857484 B   ---   --   ---xx   flac  0.4206  joe2017-01-17d03t06.flac
     9:58.70      105651884 B   ---   --   ---xx   flac  0.5680  joe2017-01-17d03t07.flac
   166:07.17     1758219752 B                            0.5255  (22 files)




More information about the bittorrent mailing list