[bittorrent] jg1972-01-19.jgms.sbd.scotton.miller.sirmick.137595.sbeok.flac16 e

Automated Mailer noreply-bt.e at etree.org
Wed Jan 18 06:12:52 UTC 2017


Band:           Garcia
Torrent Name:   jg1972-01-19.jgms.sbd.scotton.miller.sirmick.137595.sbeok.flac16 e
Uploaded by:     SIRMick
DB Link:        
Details:        http://bt.etree.org/details.php?id=590878

Contact the seeder at http://db.etree.org/ SIRMick

If the link to this show does not work, it was probably removed for
being non-trade-friendly.

Description / text file:
-------------------------
Jerry Garcia and Merl Saunders
The Lion's Share
San Anselmo, CA
January 19, 1972


Source: sbd > reel master > Dat 44.1k
        Provided by Paul Scotton  
Transfer: Dat > Sony R500 > Sound Devices 744T > wav 16/44.1
          Transferred by Charlie Miller
Lineage: wav 16/44.1 > Adobe Audition 3.0.1 > iZotope RX4 Advanced >
         iZotope Ozone 5 Advanced > CD Wave > TLH > Flac16

Set I

01   It Takes A Lot To Laugh, It Takes A Train To Cry
02   Expressway (To Your Heart) >
03   Imagine
04   That's All Right, Mama
05   Save Mother Earth *
06   I Was Made To Love Her *




Jerry Garcia - guitar, vocals
Merl Saunders - keyboards, vocals
John Kahn - bass
Bill Vitt - drums

guest:

* Paul Butterfield - harmonica




Notes:

- I have restored the start of track 1 and also repaired a tape problem that occured at about 4:11.



Thanks to Paul and Charlie



edited and mastered
SIRMick
January 2017


shntool output:

    length     expanded size    cdr  WAVE problems  fmt   ratio  filename
     8:34.49       90784892 B   ---   --   ---xx   flac  0.5431  jgms1972-01-19t01.flac
    11:20.63      120100220 B   ---   --   ---xx   flac  0.6156  jgms1972-01-19t02.flac
     8:56.17       94590428 B   ---   --   ---xx   flac  0.5641  jgms1972-01-19t03.flac
     6:39.07       70400108 B   ---   --   ---xx   flac  0.6044  jgms1972-01-19t04.flac
    18:34.67      196667228 B   ---   --   ---xx   flac  0.5779  jgms1972-01-19t05.flac
     7:45.54       82153052 B   ---   --   ---xx   flac  0.6008  jgms1972-01-19t06.flac
    61:51.32      654695928 B                            0.5837  (6 files)





More information about the bittorrent mailing list