[bittorrent] Battlefield Collective Nik's Place Marietta, Georgia 1/16/2017 (Schoeps CCM4V'S FOB)

Automated Mailer noreply-bt.e at etree.org
Tue Jan 17 05:15:57 UTC 2017


Band:           Other
Torrent Name:   Battlefield Collective Nik's Place Marietta, Georgia 1/16/2017 (Schoeps CCM4V'S FOB)
Uploaded by:    zmanatl
DB Link:        
Details:        http://bt.etree.org/details.php?id=590863

Contact the seeder at http://db.etree.org/zmanatl

If the link to this show does not work, it was probably removed for
being non-trade-friendly.

Description / text file:
-------------------------
Battlefield Collective
Nik's Place
Marietta, Georgia
1/16/2017

Source: Schoeps CCM4V's>Lunatec V2>Benchmark AD2K>
Sound Devices 722 (24/44)
FOB/DFC/KFC/ZFC/AARP Stagelip, 6 1/2' High
DSP: Sound Devices 722>Sound Forge 10.0>CD Wave>flac(16)
ID3 Tagged In Foobar 2000
Recorded By: Z-Man
Seeded By: Z-Man

Disc I 

01 Greeting
02 You Swept Me Away
03 This One Goes Out To The One I Love
04 Leavin' On A Jet Plane
05 These Boots Are Made For Walkin'
06 Ring Of Fire
07 Bad Moon Risin'
08 Night Run
09 Waitin' Up For You
10 ?
11 Happy Together
12 ?

battle2017-01-16d01t01.flac:f5dc83297f689b0b4505791e34584c38
battle2017-01-16d01t02.flac:4a0475585b52d87ee251eac0bdda9003
battle2017-01-16d01t03.flac:720fa2db6f081e9b9d26c78de2548a07
battle2017-01-16d01t04.flac:71ad5b26d4809c80af47e3cc479ef92c
battle2017-01-16d01t05.flac:9f1f92d42cd5897215fb5c481dd8e928
battle2017-01-16d01t06.flac:c89dc7dcb4fd52ca7b5332fc6f60fb0c
battle2017-01-16d01t07.flac:a554ac2184a641d5b7c4a716ada3e9bf
battle2017-01-16d01t08.flac:a5955708884783cfe60ef54f211f4cad
battle2017-01-16d01t09.flac:481fe3ce478a19f9f89338ac968e2b4b
battle2017-01-16d01t10.flac:659c2d788c8f631717827c682015c66d
battle2017-01-16d01t11.flac:be3adfe1e3503a2df7b150da4f5b8744
battle2017-01-16d01t12.flac:2e7b201b92a957b454ba937fdb6fc101

 length     expanded size    cdr  WAVE problems  fmt   ratio  filename
     0:16.56        2954156 B   ---   --   ---xx   flac  0.3491  battle2017-01-16d01t01.flac
     4:53.58       51821660 B   ---   --   ---xx   flac  0.6043  battle2017-01-16d01t02.flac
     4:10.07       44116508 B   ---   --   ---xx   flac  0.5896  battle2017-01-16d01t03.flac
     3:48.33       40296860 B   ---   --   ---xx   flac  0.5649  battle2017-01-16d01t04.flac
     3:08.58       33299660 B   ---   --   ---xx   flac  0.5847  battle2017-01-16d01t05.flac
     4:22.30       46287404 B   ---   --   ---xx   flac  0.5790  battle2017-01-16d01t06.flac
     3:32.10       37420364 B   ---   --   ---xx   flac  0.5844  battle2017-01-16d01t07.flac
     4:23.09       46414412 B   ---   --   ---xx   flac  0.5607  battle2017-01-16d01t08.flac
     4:56.28       52280300 B   ---   --   ---xx   flac  0.5951  battle2017-01-16d01t09.flac
     4:29.27       47515148 B   ---   --   ---xx   flac  0.5897  battle2017-01-16d01t10.flac
     4:56.25       52273244 B   ---   --   ---xx   flac  0.5352  battle2017-01-16d01t11.flac
     3:19.42       35202428 B   ---   --   ---xx   flac  0.5657  battle2017-01-16d01t12.flac
    46:17.08      489882144 B                            0.5763  (12 files)















More information about the bittorrent mailing list